Today is a free download without charge Download

Закрытие сезона (Игорь Шатров)[1974.,драма, мелодрама, спортивный фильм] TVRip

Reply to topic
 
Author
Message

sashau ®

Gender:

Longevity: 9 years 6 months

Posts: 3497

Торрент-статистика

Post 08-Dec-2013 17:44

[Quote]

Закрытие сезона - Год выпуска: 1974
Жанр: драма, мелодрама, спортивный фильм
Описание фильма: Трое подростков, трое мальчишек, Генка, Толик и "Архимед" любили одну девочку, Светку. История школьной любви отчетливо обнаружила характеры всех троих. Толик тогда сплоховал, струсил и сподличал. Сейчас, в настоящее время, он расплачивается за свое малодушие, даже не решился прийти на стадион, отсиживается дома и наблюдает гонки по телевизору. Мы с вами видим весь мир в ярких красках, для Толика изображение черно-белое. Ему не дано быть вместе со всеми в этой праздничной толпе на трибунах...
Режиссер: Игорь Шатров
Актеры: Тамара Трач, Владимир Пучков, Юрий Дружинин, Юрий Григорьев (II), Олег Балакин, Светлана Светличная, Иван Лапиков, Сергей Кононыхин, Владимир Курашкин, Юрий Чернов, Владимир Селезнёв
Продолжительность: 01:27:07
Качество видео: TVRip

Видеокодек: DivX 5
Битрейт видео: ~790 Кбит/сек
Размер кадра: 720x544
Аудиокодек: MP3, 2 ch, 320 Кбит/сек

MediaInfo:

Общее
Полное имя : E:\Интересно\!!!Конкурс детский\2Этап\!\Закрытие сезона\Закрытие сезона (1974) TVRip.avi
Формат : AVI
Формат/Информация : Audio Video Interleave
Размер файла : 698 Мбайт
Продолжительность : 1 ч. 27 м.
Общий поток : 1120 Кбит/сек
Библиотека кодирования : VirtualDub-MPEG2 build 24417/release
Видео
Идентификатор : 0
Формат : MPEG-4 Visual
Параметр BVOP формата : Нет
Параметр QPel формата : Нет
Параметр GMC формата : Без точки перехода
Параметр матрицы формата : Default (H.263)
Идентификатор кодека : DX50
Идентификатор кодека/Подсказка : DivX 5
Продолжительность : 1 ч. 27 м.
Битрейт : 790 Кбит/сек
Ширина : 720 пикселей
Высота : 544 пикселя
Соотношение сторон : 4:3
Частота кадров : 25,000 кадров/сек
Цветовое пространство : YUV
Субдискретизация насыщенности : 4:2:0
Битовая глубина : 8 бит
Тип развёртки : Прогрессивная
Метод сжатия : С потерями
Бит/(Пиксели*Кадры) : 0.081
Размер потока : 492 Мбайт (71%)
Библиотека кодирования : DivX 5.2.1 (DrDivX 106) (UTC 2004-09-08)
Аудио
Идентификатор : 1
Формат : MPEG Audio
Версия формата : Version 1
Профиль формата : Layer 3
Режим : Joint stereo
Расширение режима : MS Stereo
Идентификатор кодека : 55
Идентификатор кодека/Подсказка : MP3
Продолжительность : 1 ч. 27 м.
Вид битрейта : Постоянный
Битрейт : 320 Кбит/сек
Каналы : 2 канала
Частота : 48,0 КГц
Метод сжатия : С потерями
Размер потока : 199 Мбайт (29%)
Выравнивание : Разделение по промежуткам
Продолжительность промежутка : 40 мс. (1,00 видеокадр)
Время предзагрузки промежутка : 500 мс.
Библиотека кодирования : LAMEЄ
Скриншоты:          
         
Other forum [Profile] [PM]
Display posts from previous:    
Reply to topic

The time now is: Today 12:05

All times are GMT + 3 Hours



You cannot post new topics in this forum
You cannot reply to topics in this forum
You cannot edit your posts in this forum
You cannot delete your posts in this forum
You cannot vote in polls in this forum
You cannot attach files in this forum
You cannot download files in this forum