Today is a free download without charge Download

Маленький беглец (Эдуард Бочаров, Тейноскэ Кинугаса)[1966.,Семейный, Детский] DVDRip

Reply to topic
 
Author
Message

sashau ®

Gender:

Longevity: 9 years 6 months

Posts: 3497

Торрент-статистика

Post 08-Dec-2013 17:38

[Quote]

Маленький беглец- Год выпуска: 1966
Производство: CCCР, Япония
Перевод: Одноголосый закадровый
Жанр: Семейный, Детский
Описание фильма: Во время гастролей советского цирка в Японии маленький музыкант Кэн знакомится с клоуном Юрием Никулиным. Узнав, что его больной отец находится на лечении в Советском Союзе, Кэн отправляется на его поиски. Дружба великого клоуна и мальчика продолжается уже в Москве. Отец Кэна умер. Но мальчик не одинок. Его старший друг заботится о нем, старается, чтобы он стал большим
Режиссер: Эдуард Бочаров, Тейноскэ Кинугаса
Актеры: Чихару Инаеси, Макико Исимару, Володя Быков, Таня Айнюкова, Юрий Никулин, Мачико Ке, Дзюкичи Уно, Иван Рыжов, Инна Макарова, Кэн Уцуи, Станислав Чекан, Эйдзи Фунакоси, Любовь Соколова, Мичие Ясуда, Николай Граббе, Хироюки Ота, Виктор Чекмарев
Продолжительность: 01:43:16
Качество видео: DVDRip

Видеокодек: DivX 5
Битрейт видео: ~1694 Кбит/сек
Размер кадра: 720x384
Аудиокодек: AC3, 2 ch, 192 Кбит/сек

MediaInfo:

Общее
Полное имя : E:\Интересно\!!!Конкурс детский\2Этап\!\Маленький беглец\Маленький беглец (1966) DVDRip.avi
Формат : AVI
Формат/Информация : Audio Video Interleave
Размер файла : 1,37 Гбайт
Продолжительность : 1 ч. 43 м.
Общий поток : 1894 Кбит/сек
Жанр : Child's
Программа кодирования : Nandub v1.0rc2
Формат оригинала/Имя : Movie
Примечание : DVDRip by gera
Видео
Идентификатор : 0
Формат : MPEG-4 Visual
Параметр BVOP формата : 3
Параметр QPel формата : Нет
Параметр GMC формата : Без точки перехода
Параметр матрицы формата : Default (MPEG)
Режим смешивания : Сжатый битовый поток
Идентификатор кодека : DX50
Идентификатор кодека/Подсказка : DivX 5
Продолжительность : 1 ч. 43 м.
Битрейт : 1694 Кбит/сек
Ширина : 720 пикселей
Высота : 384 пикселя
Соотношение сторон : 1,85:1
Частота кадров : 25,000 кадров/сек
Цветовое пространство : YUV
Субдискретизация насыщенности : 4:2:0
Битовая глубина : 8 бит
Тип развёртки : Чересстрочная
Порядок развёртки : Нижнее поле первое
Метод сжатия : С потерями
Бит/(Пиксели*Кадры) : 0.245
Размер потока : 1,22 Гбайт (89%)
Библиотека кодирования : DivX 6.8.0 (UTC 2007-12-04)
Аудио
Идентификатор : 1
Формат : AC-3
Формат/Информация : Audio Coding 3
Расширение режима : CM (complete main)
Параметр Endianness формата : Big
Идентификатор кодека : 2000
Продолжительность : 1 ч. 43 м.
Вид битрейта : Постоянный
Битрейт : 192 Кбит/сек
Каналы : 2 канала
Расположение каналов : Front: L R
Частота : 48,0 КГц
Битовая глубина : 16 бит
Метод сжатия : С потерями
Размер потока : 142 Мбайт (10%)
Выравнивание : Соединение по промежуткам
Продолжительность промежутка : 64 мс. (1,60 видеокадра)
Время предзагрузки промежутка : 64 мс.
Скриншоты:          
         
Other forum [Profile] [PM]
Display posts from previous:    
Reply to topic

The time now is: Today 15:30

All times are GMT + 3 Hours



You cannot post new topics in this forum
You cannot reply to topics in this forum
You cannot edit your posts in this forum
You cannot delete your posts in this forum
You cannot vote in polls in this forum
You cannot attach files in this forum
You cannot download files in this forum