Today is a free download without charge Download

Discovery: Крупнейший в мире корабль. Первое плавание / The world\'s biggest ship. Setting sail (2013) SATRip

Reply to topic
 
Author
Message

UndegraundMen ®

Longevity: 7 years 7 months

Posts: 25145

Торрент-статистика

Post 07-Dec-2013 23:08

[Quote]

Discovery: Крупнейший в мире корабль. Первое плавание / The world's biggest ship. Setting sail (2013) SATRip- Режиссер / Телекомпания: Бенжамин Стотт / США, Discovery Channel
Год выпуска: 2013
Жанр: Документальный
Описание:
Крупнейший датский оператор контейнеровозов и судов снабжения в мире - Maersk и канал Discovery объединили свои усилия, чтобы показать нам каждый этап строительства 400-метрового судна «Triple-E». Размеры корпуса ограничены только портами, которые могут принимать этот контейнеровоз.В этой серии: Корабль сошел со стапелей, проходит морские испытания и загружается в первый рейс.Это первый контейнеровоз в серии из двадцати заказанных судостроителям гигантов.Следите за всеми нюансами плавания «Triple-E» и работы его команды.
Продолжительность: 00:43:53
Качество видео: SATRip
Перевод: Одноголосый закадровый, профессиональный
Видеокодек: Xvid
Битрейт видео: ~MPEG-4 1138 Кбит/сек
Размер кадра: 704 x 384 (1.250) at 25.000 fps
Аудиокодек: MP3
Битрейт аудио: 128 Кбит/сек 2 канала, 44,1 КГц
Сэмпл

MI

Код:
Общее
Полное имя : D:\dok\Discovery.The world's biggest ship.avi
Формат : AVI
Формат/Информация : Audio Video Interleave
Размер файла : 401 Мбайт
Продолжительность : 43 м.
Общий поток : 1276 Кбит/сек
Программа кодирования : VirtualDubModRus 1.5.10.2 (build 2542/release)
Библиотека кодирования : VirtualDubMod build 2542/release
Видео
Идентификатор : 0
Формат : MPEG-4 Visual
Профиль формата : Advanced [email protected]
Параметр BVOP формата : 1
Параметр QPel формата : Нет
Параметр GMC формата : Без точки перехода
Параметр матрицы формата : Default (MPEG)
Идентификатор кодека : XVID
Идентификатор кодека/Подсказка : XviD
Продолжительность : 43 м.
Битрейт : 1138 Кбит/сек
Ширина : 704 пикселя
Высота : 384 пикселя
Соотношение сторон : 5:4
Соотношение сторон в оригинале : 16:9
Частота кадров : 25,000 кадров/сек
Цветовое пространство : YUV
Субдискретизация насыщенности : 4:2:0
Битовая глубина : 8 бит
Тип развёртки : Прогрессивная
Метод сжатия : С потерями
Бит/(Пиксели*Кадры) : 0.168
Размер потока : 357 Мбайт (89%)
Библиотека кодирования : XviD 1.2.1 (UTC 2008-12-04)
Аудио
Идентификатор : 1
Формат : MPEG Audio
Версия формата : Version 1
Профиль формата : Layer 3
Режим : Joint stereo
Расширение режима : MS Stereo
Идентификатор кодека : 55
Идентификатор кодека/Подсказка : MP3
Продолжительность : 43 м.
Вид битрейта : Постоянный
Битрейт : 128 Кбит/сек
Каналы : 2 канала
Частота : 44,1 КГц
Метод сжатия : С потерями
Размер потока : 40,2 Мбайт (10%)
Выравнивание : Разделение по промежуткам
Продолжительность промежутка : 38 мс. (0,94 видеокадр)
Время предзагрузки промежутка : 500 мс.
Скриншоты:
       
   
Время раздачи: с 18:00 до 22:00
Other forum [Profile] [PM]
Display posts from previous:    
Reply to topic

The time now is: Today 04:35

All times are GMT + 3 Hours



You cannot post new topics in this forum
You cannot reply to topics in this forum
You cannot edit your posts in this forum
You cannot delete your posts in this forum
You cannot vote in polls in this forum
You cannot attach files in this forum
You cannot download files in this forum