Today is a free download without charge Download

Русский ковчег (Александр Сокуров) [2002, Россия, Германия, Япония, Канада, Финляндия, Дания, Фэнтези, драма, детектив, Blu-ray disc] + Sub Eng

Reply to topic
 
Author
Message

Omen ®

Longevity: 8 years 10 months

Posts: 181086

Торрент-статистика

Post 07-Dec-2013 13:26

[Quote]

Русский ковчег
Страна: Россия, Германия, Япония, Канада, Финляндия, Дания
Студия: The Hermitage Bridge Studio, Egoli Tossell Film AG при участии Фора-фильм
Жанр: Фэнтези, драма, детектив
Год выпуска: 2002
Продолжительность: 01:39:38
Cубтитры: английские
Режиссер: Александр Сокуров
В ролях: Сергей Дрейден, Леонид Мозговой, Максим Сергеев, Наталья Никуленко, Александр Малныкин, Мария Кузнецова, Светлана Свирко, Владимир Баранов, Анна Алексахина, Давид Гиоргобиани
Описание: Человек – наш современник, неожиданно оказывается в Эрмитаже начала 1700 годов, не имея ни малейшего представления о том, как он туда попал. Осматривая залы, он встречает иностранца, в котором угадывает черты известного французского дипломата и путешественника XIX века.
Эти двое путешествуют по времени сквозь 300 лет российской истории, произведения искусства и памятники культуры возвращают их во времена Российской империи.
Доп. информация: Весь фильм снят одним единственным непрерывным дублем.
2000 актеров. 300 лет русской истории. 33 зала Эрмитажа. 3 живых оркестра. Всего 1 дубль на съемках.

Бонусы

- In One Breath (SD, 43:41): An exhaustive making-of documentary about the film's intense single-day, single-shot production, which took four tries to complete. (They decided to start over if any mistakes were made during the first twenty minutes.) Features extensive interviews with director Alexander Sokurov, cinematographer Tilman Bьttner, and film critic Rich Holloway.
- Trailer (SD, 1:44)
Меню: Русское, анимированное, озвученное
Сэмпл
Тип релиза: Blu-ray disc
Контейнер: BDMV
Видео: MPEG-4 AVC Video, PAL, 1920x1080, 36871 kbps, 16:9, 23,976 fps
Аудио: Русский, LPCM, 2 ch, 48 kHz, 2304 kbps, 24-bit
Формат субтитров: prerendered (Blu-ray/PGS/SUP)

BD-Info

DISC INFO:
Disc Title: RUSSIAN_ARK_HDCLUB
Disc Size: 42 457 544 297 bytes
Protection: AACS
BD-Java: No
BDInfo: 0.5.8
PLAYLIST REPORT:
Name: 00000.MPLS
Length: 1:39:38.430 (h:m:s.ms)
Size: 30 673 918 656 bytes
Total Bitrate: 41,05 Mbps
VIDEO:
Codec Bitrate Description
----- ------- -----------
MPEG-4 AVC Video 36871 kbps 1080p / 23,976 fps / 16:9 / High Profile 4.1
AUDIO:
Codec Language Bitrate Description
----- -------- ------- -----------
LPCM Audio Russian 2304 kbps 2.0 / 48 kHz / 2304 kbps / 24-bit
SUBTITLES:
Codec Language Bitrate Description
----- -------- ------- -----------
Presentation Graphics English 39,662 kbps
FILES:
Name Time In Length Size Total Bitrate
---- ------- ------ ---- -------------
00001.M2TS 0:00:00.000 0:00:11.010 3 231 744 2 348
00000.M2TS 0:00:11.010 1:39:16.742 30 663 695 040 41 182
00037.M2TS 1:39:27.753 0:00:10.677 6 991 872 5 239

Скриншоты


Скриншоты доп. материалов


Other forum [Profile] [PM]

Dracula

Longevity: 7 years 11 months

Posts: 11000

Торрент-статистика

Post 09-Dec-2013 22:35 (after 2 days 9 hours)

Топик был перенесен из форума Зарубежное кино (HD Video) в форум Наше кино


Delia
 
Similar theme
Forum Topic Author Torrent Replies Last Post
./templates/default/images/folder_dl.gif Nintendo | Разное [Dendy, Game Boy, Sega, Nintendo] Сборник русифицированных игр [Русский] (1995-2009) sashau
1 | 0

0 | 5472

41

2013-06-12 16:43
sashau Latest
./templates/default/images/folder_sticky.gif Ролики, сайт рипы Русские Пикаперы Снимают Девушек (51-ролик)[MyPickupGirls.com][2007-2009 г., Teens, PickUp, Public, Oral, Classic, Anal Sex., SiteRip] Fanatik
1 | 0

0 | 4277

54

2016-03-09 20:30
Fanatik Latest
Display posts from previous:    
Reply to topic

The time now is: Today 23:20

All times are GMT + 3 Hours



You cannot post new topics in this forum
You cannot reply to topics in this forum
You cannot edit your posts in this forum
You cannot delete your posts in this forum
You cannot vote in polls in this forum
You cannot attach files in this forum
You cannot download files in this forum