Today is a free download without charge Download

Три богатыря на дальних берегах (Константин Феоктистов) [2012, Мультфильм, Приключения, Семейный, BDRip]

Reply to topic
 
Author
Message

Omen ®

Longevity: 7 years 11 months

Posts: 181087

Торрент-статистика

Post 05-Dec-2013 07:54

[Quote]

Три богатыря на дальних берегах- Страна: Россия
Студия: Кинокомпания CTB, Анимационная студия Мельница
Жанр: Мультфильм, Приключения, Семейный
Продолжительность: 01:11:18
Год выпуска: 2012
Русские субтитры: нет-Режиссёр: Константин Феоктистов-Роли озвучивали: Дмитрий Быковский-Ромашов, Валерий Соловьев, Олег Куликович, Сергей Маковецкий, Дмитрий Высоцкий, Фёдор Бондарчук, Елизавета Боярская, Мария Цветкова-Овсянникова, Елена Шульман, Лия Медведева-Описание: На этот раз Алеша Попович, Добрыня Никитич и Илья Муромец, благодаря козням коварной Бабы Яги, оказываются за семью морями на острове, на котором живут туземцы и страшный Гомума. В их отсутствие купец Колыван решают вместе с Бабой-Ягой захватить царство и забрать власть у князя Киевского. На помощь незадачливому правителю приходит конь Юлий, а также жены богатырей и их многочисленные родственники. Словом, богатырей и зрителей ждут приключения на дальних берегах, обыкновенные и невероятные.-Доп. информация:

Релиз: Автор рипа: MECHANICAL ENGINEER-Качество: BDRip (Исх.: 3BOG_BEREGA_HDCLUB)
Формат: AVI
Видео: 704 x 400; 23.976 fps; 1731 kbps; 0.26 bit/pixel
Аудио: 48 kHz; 5.1 ch; 448.00 kbps; AC3 Dolby Digital

Подробные технические данные

Format : AVIFormat/Info : Audio Video InterleaveFile size : 1.09 GiBDuration : 1h 11mnOverall bit rate : 2 189 KbpsMovie name : Три богатыря на дальних берегах (2012)Director : MECHANICAL ENGINEER (Blu-Ray)Writing application : VirtualDubMod 1.5.10.3 | www.virtualdub-fr.org || (build 2550/release)Copyright : HQ-ViDEOComment : 02.02.2013
VideoID : 0Format : MPEG-4 VisualFormat profile : Advanced [email protected] settings, BVOP : YesFormat settings, QPel : NoFormat settings, GMC : No warppointsFormat settings, Matrix : CustomCodec ID : XVIDCodec ID/Hint : XviDDuration : 1h 11mnBit rate : 1 731 KbpsWidth : 704 pixelsHeight : 400 pixelsDisplay aspect ratio : 16:9Frame rate : 23.976 fpsColor space : YUVChroma subsampling : 4:2:0Bit depth : 8 bitsScan type : ProgressiveBits/(Pixel*Frame) : 0.256Stream size : 883 MiB (79%)Writing library : XviD 65
AudioID : 1Format : AC-3Format/Info : Audio Coding 3Mode extension : CM (complete main)Codec ID : 2000Duration : 1h 11mnBit rate mode : ConstantBit rate : 448 KbpsChannel(s) : 6 channelsChannel positions : Front: L C R, Side: L R, LFESampling rate : 48.0 KHzBit depth : 16 bitsStream size : 228 MiB (20%)Alignment : Split accross interleavesInterleave, duration : 42 ms (1.00 video frame)Interleave, preload duration : 500 ms

Скриншоты



Other forum [Profile] [PM]
Display posts from previous:    
Reply to topic

The time now is: Today 09:40

All times are GMT + 3 Hours



You cannot post new topics in this forum
You cannot reply to topics in this forum
You cannot edit your posts in this forum
You cannot delete your posts in this forum
You cannot vote in polls in this forum
You cannot attach files in this forum
You cannot download files in this forum