Today is a free download without charge Download

Сталинград (Фёдор Бондарчук) [2013.., Военный, Драма, Боевик, BDRip [720]]

Reply to topic
 
Author
Message

Meshanik ®

Gender:

Longevity: 9 years 3 months

Posts: 3866

Location: Los Angeles

Торрент-статистика

Post 04-Dec-2013 22:56

[Quote]

-Сталинград
«Между жизнью и смертью есть место любви и надежде»
- Год выпуска: 2013
Производство: Россия / Арт Пикчерс Студия
Жанр: Военный, Драма, Боевик
Продолжительность: 02:10:48
Перевод: Не требуется (Русский язык)
Субтитры: Отсутствуют-Режиссер: Фёдор Бондарчук
Продюсер: Сергей Мелькумов, Антон Златопольский, Дмитрий Рудовский
В ролях: Мария Смольникова, Яна Студилина, Пётр Фёдоров, Томас Кречман, Сергей Бондарчук, Дмитрий Лысенков, Андрей Смоляков, Алексей Барабаш, Олег Волку, Хайнер Лаутербах-Дата мировой премьеры: 10 октября 2013
Дата российской премьеры: 10 октября 2013, «WDSSPR»
Дата выхода DVD релиза: 4 декабря 2013, «Lizard Cinema Trade»
Дата выхода Blu-Ray релиза: 4 декабря 2013, «Lizard Cinema Trade»-Описание фильма:-1942-й год. Сталинград. Советские войска планируют контрнаступление на немецкие части, занявшие правый берег Волги. Наступление сорвано. Лишь разведчикам под командованием капитана Громова удается перебраться на другой берег и закрепиться в одном из домов. Им дан приказ удержать его любой ценой. Кроме нескольких чудом уцелевших советских солдат они находят в доме его последнюю жительницу — 19-летнюю Катю. Приказ отбить дом, захваченный противником, получает немецкий офицер Кан. На фоне одного из самых кровопролитных сражений в истории человечества разворачиваются истории любви и драматического противостояния характеров.- -Качество видео: BDRip [720]
Видео: MPEG-4 AVC/H.264, 1280x528, ~6500 kbps, 0.401 bit/pixel
Аудио »1: AC3 5.1, 640 kbps, 48.0 KHz [Русский]
Аудио »2: DTS 5.1, 1510 kbps, 48.0 KHz [Русский]
-

MediaInfo...

Формат : Matroska
Версия формата : Version 2
Размер файла : 7,90 Гбайт
Продолжительность : 2 ч. 10 м.
Общий поток : 8651 Кбит/сек
Дата кодирования : UTC 2013-12-02 12:17:26
Программа кодирования : mkvmerge v6.3.0 ('You can't stop me!') built on Jun 28 2013 20:09:41
Библиотека кодирования : libebml v1.3.0 + libmatroska v1.4.0
Видео
Идентификатор : 1
Формат : AVC
Формат/Информация : Advanced Video Codec
Профиль формата : [email protected]
Параметр CABAC формата : Да
Параметр ReFrames формата : 9 кадров
Идентификатор кодека : V_MPEG4/ISO/AVC
Продолжительность : 2 ч. 10 м.
Битрейт : 6500 Кбит/сек
Ширина : 1280 пикселей
Высота : 528 пикселей
Соотношение сторон : 2,40:1
Режим частоты кадров : Постоянный
Частота кадров : 23,976 кадра/сек
Цветовое пространство : YUV
Субдискретизация насыщенности : 4:2:0
Битовая глубина : 8 бит
Тип развёртки : Прогрессивная
Бит/(Пиксели*Кадры) : 0.401
Размер потока : 5,78 Гбайт (73%)
Библиотека кодирования : x264 core 138 r2358 9e941d1
Настройки программы : cabac=1 / ref=9 / deblock=1:-3:-3 / analyse=0x3:0x113 / me=umh / subme=11 / psy=1 / psy_rd=1.00:0.00 / mixed_ref=1 / me_range=48 / chroma_me=1 / trellis=2 / 8x8dct=1 / cqm=0 / deadzone=21,11 / fast_pskip=1 / chroma_qp_offset=-2 / threads=12 / lookahead_threads=1 / sliced_threads=0 / nr=0 / decimate=1 / interlaced=0 / bluray_compat=0 / constrained_intra=0 / bframes=5 / b_pyramid=2 / b_adapt=1 / b_bias=0 / direct=2 / weightb=1 / open_gop=0 / weightp=2 / keyint=240 / keyint_min=23 / scenecut=40 / intra_refresh=0 / rc_lookahead=40 / rc=2pass / mbtree=1 / bitrate=6500 / ratetol=1.0 / qcomp=0.60 / qpmin=10 / qpmax=51 / qpstep=4 / cplxblur=20.0 / qblur=0.5 / vbv_maxrate=62500 / vbv_bufsize=78125 / nal_hrd=none / ip_ratio=1.40 / aq=1:1.00 / zones=178286,188182,q=40
Язык : English
Default : Да
Forced : Нет
Аудио #1
Идентификатор : 2
Формат : AC-3
Формат/Информация : Audio Coding 3
Расширение режима : CM (complete main)
Параметр Endianness формата : Big
Идентификатор кодека : A_AC3
Продолжительность : 2 ч. 10 м.
Вид битрейта : Постоянный
Битрейт : 640 Кбит/сек
Каналы : 6 каналов
Расположение каналов : Front: L C R, Side: L R, LFE
Частота : 48,0 КГц
Битовая глубина : 16 бит
Метод сжатия : С потерями
Размер потока : 599 Мбайт (7%)
Язык : Russian
Default : Да
Forced : Нет
Аудио #2
Идентификатор : 3
Формат : DTS
Формат/Информация : Digital Theater Systems
Идентификатор кодека : A_DTS
Продолжительность : 2 ч. 10 м.
Вид битрейта : Постоянный
Битрейт : 1510 Кбит/сек
Каналы : 6 каналов
Расположение каналов : Front: L C R, Side: L R, LFE
Частота : 48,0 КГц
Битовая глубина : 24 бит
Метод сжатия : С потерями
Размер потока : 1,38 Гбайт (17%)
Язык : Russian
Default : Нет
Forced : Нет
Меню
00:00:00.000 : en:00:00:00.000
00:15:37.436 : en:00:15:37.436
00:31:59.334 : en:00:31:59.334
00:46:05.888 : en:00:46:05.888
01:03:22.048 : en:01:03:22.048
01:20:44.840 : en:01:20:44.840
01:35:53.164 : en:01:35:53.164
01:51:11.790 : en:01:51:11.790
-« Скриншоты »-          -
Other forum [Profile] [PM]
Display posts from previous:    
Reply to topic

The time now is: Today 23:59

All times are GMT + 3 Hours



You cannot post new topics in this forum
You cannot reply to topics in this forum
You cannot edit your posts in this forum
You cannot delete your posts in this forum
You cannot vote in polls in this forum
You cannot attach files in this forum
You cannot download files in this forum