Today is a free download without charge Download

Конан-варвар / Conan the Barbarian (Маркус Ниспел, 2011) DVD5

Reply to topic
 
Author
Message

Omen ®

Longevity: 8 years 5 months

Posts: 181087

Торрент-статистика

Post 13-Nov-2011 13:10

[Quote]

Конан-варвар
Conan the Barbarian (2011) DVD5
-
Русское название: Конан-варвар
Оригинальное название: Conan the Barbarian
Год выпуска: 2011
Производство: США
Студия: Millennium Films, Nu-Image Films, Paradox Entertainment
Бюджет: $90 000 000
Жанр: Фэнтези, Боевик, Приключения
Перевод: Дублированный
Вид субтитров: Вшитые отключаемые
Язык субтитров: Русский, Английский
- -Дата мировой премьеры: 14 августа 2011
Дата российской премьеры: 18 августа 2011, «Парадиз», «Наше Кино»
Дата выхода DVD релиза: 6 декабря 2011, «Парадиз Видео»-Режиссер: Маркус Ниспел
Продюсер: Джон Балдеччи, Фредерик Малмберг, Лес Уэлдон
Актеры: Джейсон Момоа, Рон Перлман, Стивен Лэнг, Рейчел Николс, Роуз МакГоун, Боб Сапп, Лео Ховард, Стив О’Доннелл, Нонсо Анози, Раад Рави-Описание фильма:
Природа наделила его силой. Гибель отца сделала его свирепым. Великий киммерийский воин Конан отправляется в дальнее странствие, чтобы совершить отмщение за кровь своего рода. Но поиски, которые начинаются как личная вендетта, вскоре оборачиваются эпической схваткой со сверхъестественными силами, поработившими народы великой Хайбории. Киммерийский воин — последняя надежда на спасение…
-Продолжительность: 01:52:43
Качество видео: DVD5-Видеокодек: MPEG-2
Битрейт видео: ~5159 kb/s
Размер кадра: PAL 16:9 (720x576)@(1024x576)
Аудиокодек и битрейт аудио:
Аудио #1: Английский ( AC3, 6 ch, 256 kb/s)
Аудио #2: Русский ( AC3, 6 ch, 384 kb/s )
Дополнительно: нет
-

MediaInfo

Код:
Общее
Полное имя                       : D:\Конан-варвар\Конан-варвар\VIDEO_TS\VTS_01_1.VOB
Формат                           : MPEG-PS
Размер файла                     : 1000 Мбайт
Продолжительность                : 23 м.
Режим общего битрейта            : Переменный
Общий поток                      : 5917 Кбит/сек
Видео
Идентификатор                    : 224 (0xE0)
Формат                           : MPEG Video
Версия формата                   : Version 2
Профиль формата                  : [email protected]
Параметр BVOP формата            : Да
Параметр матрицы формата         : Выборочная
Продолжительность                : 23 м.
Вид битрейта                     : Переменный
Битрейт                          : 5159 Кбит/сек
Максимальный битрейт             : 9150 Кбит/сек
Ширина                           : 720 пикселей
Высота                           : 576 пикселей
Соотношение сторон               : 16:9
Частота кадров                   : 25,000 кадров/сек
Стандарт вещания                 : PAL
Цветовое пространство            : YUV
Субдискретизация насыщенности    : 4:2:0
Битовая глубина                  : 8 бит
Тип развёртки                    : Чересстрочная
Порядок развёртки                : Верхнее поле первое
Метод сжатия                     : С потерями
Бит/(Пиксели*Кадры)              : 0.498
Размер потока                    : 872 Мбайт (87%)
Аудио #1
Идентификатор                    : 189 (0xBD)-128 (0x80)
Формат                           : AC-3
Формат/Информация                : Audio Coding 3
Расширение режима                : CM (complete main)
Режим смешивания                 : DVD-Video
Продолжительность                : 23 м.
Вид битрейта                     : Постоянный
Битрейт                          : 256 Кбит/сек
Каналы                           : 6 каналов
Расположение каналов             : Front: L C R, Side: L R, LFE
Частота                          : 48,0 КГц
Битовая глубина                  : 16 бит
Метод сжатия                     : С потерями
Размер потока                    : 43,3 Мбайт (4%)
Аудио #2
Идентификатор                    : 189 (0xBD)-129 (0x81)
Формат                           : AC-3
Формат/Информация                : Audio Coding 3
Расширение режима                : CM (complete main)
Режим смешивания                 : DVD-Video
Продолжительность                : 23 м.
Вид битрейта                     : Постоянный
Битрейт                          : 384 Кбит/сек
Каналы                           : 6 каналов
Расположение каналов             : Front: L C R, Side: L R, LFE
Частота                          : 48,0 КГц
Битовая глубина                  : 16 бит
Метод сжатия                     : С потерями
Размер потока                    : 64,9 Мбайт (6%)
Текст #1
Идентификатор                    : 189 (0xBD)-32 (0x20)
Формат                           : RLE
Формат/Информация                : Run-length encoding
Режим смешивания                 : DVD-Video
Текст #2
Идентификатор                    : 189 (0xBD)-33 (0x21)
Формат                           : RLE
Формат/Информация                : Run-length encoding
Режим смешивания                 : DVD-Video
Текст #3
Идентификатор                    : 189 (0xBD)-34 (0x22)
Формат                           : RLE
Формат/Информация                : Run-length encoding
Режим смешивания                 : DVD-Video
Текст #4
Идентификатор                    : 189 (0xBD)-35 (0x23)
Формат                           : RLE
Формат/Информация                : Run-length encoding
Режим смешивания                 : DVD-Video
Меню
-

DVDInfo

Код:
Title: Конан-варвар
Size: 4.36 Gb ( 4 572 050,00 KBytes ) - DVD-5
Enabled regions: 1, 2, 3, 4, 5, 6, 7, 8
VTS_01 :
  Play Length: 01:52:43
  Video: PAL 16:9 (720x576) VBR, Auto Letterboxed
  Audio:
      English (Dolby AC3, 6 ch)
      Russian (Dolby AC3, 6 ch)
  Subtitles:
      English
      Russian
-Скриншоты:              -

Скриншоты меню



Last edited by Omen on 2011-11-13 19:02; edited 1 time in total
Other forum [Profile] [PM]
Display posts from previous:    
Reply to topic

The time now is: Today 11:26

All times are GMT + 3 Hours



You cannot post new topics in this forum
You cannot reply to topics in this forum
You cannot edit your posts in this forum
You cannot delete your posts in this forum
You cannot vote in polls in this forum
You cannot attach files in this forum
You cannot download files in this forum