Today is a free download without charge Download

Сталинград (Фёдор Бондарчук) [2013, Россия, Военный, драма, боевик, Blu-ray disc] + Original Rus

Reply to topic
 
Author
Message

Omen ®

Longevity: 8 years 10 months

Posts: 181086

Торрент-статистика

Post 04-Dec-2013 09:34

[Quote]

Сталинград
Страна: Россия
Студия: Арт Пикчерс Студия, Нон-стоп Продакшн
Жанр: Военный, драма, боевик
Год выпуска: 2013
Продолжительность: 02:10:45
Перевод: Не требуется
Cубтитры: нет
Оригинальная аудиодорожка: русский
Режиссер: Фёдор Бондарчук
В ролях: Пётр Фёдоров, Томас Кречманн, Мария Смольникова, Янина Студилина, Дмитрий Лысенков, Алексей Барабаш, Андрей Смоляков, Сергей Бондарчук, Олег Волку, Хайнер Лаутербах, Олег Тилькин, Ян Кузьмин, Кирилл Варакса, Полина Райкина, Юрий Уткин, Олег Малышев
Описание: Потерпев неудачу при попытке перейти Волгу и начать контрнаступление на немецкую армию, советские войска вынуждены отступать. Однако нескольким солдатам удалось перебраться на берег противника. Они остаются в меньшинстве и укрываются в прибрежном доме, где встречают девушку. Её дом заняли немцы, а сама она не успела покинуть линию фронта. На фоне самого кровопролитного в истории человечества сражения развивается история любви, и солдатам теперь любой ценой надо защитить эту девушку.
Бонусы: • Фотогалерея со съемочной площадки;
• Представляем съемочную группу;
• Трейлер 1;
• Трейлер 2.
Меню: есть
Сэмпл: http://yadi.sk/d/wrfsHuKpDkud4
Тип релиза: Blu-ray disc
Контейнер: BDMV
Видео: MPEG-4 AVC Video 25086 kbps 1080p / 24 fps / 16:9 / High Profile 4.1
Аудио: LPCM Audio Russian 6912 kbps 5.1 / 48 kHz / 6912 kbps / 24-bit

BDInfo

Disc Title: Stalingrad_2013
Disc Size: 35 212 277 651 bytes
Protection: AACS
BD-Java: Yes
BDInfo: 0.5.8
Notes:
BDINFO HOME:
Cinema Squid
http://www.cinemasquid.com/blu-ray/tools/bdinfo
INCLUDES FORUMS REPORT FOR:
AVS Forum Blu-ray Audio and Video Specifications Thread
http://www.avsforum.com/avs-vb/showthread.php?t=1155731
********************
PLAYLIST: 01002.MPLS
********************
Код:
Total   Video
Title                                                           Codec   Length  Movie Size      Disc Size       Bitrate Bitrate Main Audio Track                          Secondary Audio Track
-----                                                           ------  ------- --------------  --------------  ------- ------- ------------------                        ---------------------
01002.MPLS                                                      AVC     2:10:45 32 983 326 720  35 212 277 651  33,64   25,09   LPCM 5.1 6912Kbps (48kHz/24-bit)
Код:
DISC INFO:
Disc Title:     Stalingrad_2013
Disc Size:      35 212 277 651 bytes
Protection:     AACS
BD-Java:        Yes
BDInfo:         0.5.8
PLAYLIST REPORT:
Name:                   01002.MPLS
Length:                 2:10:45.000 (h:m:s.ms)
Size:                   32 983 326 720 bytes
Total Bitrate:          33,64 Mbps
VIDEO:
Codec                   Bitrate             Description
-----                   -------             -----------
MPEG-4 AVC Video        25086 kbps          1080p / 24 fps / 16:9 / High Profile 4.1
AUDIO:
Codec                           Language        Bitrate         Description
-----                           --------        -------         -----------
LPCM Audio                      Russian         6912 kbps       5.1 / 48 kHz / 6912 kbps / 24-bit
FILES:
Name            Time In         Length          Size            Total Bitrate
----            -------         ------          ----            -------------
00003.M2TS      0:00:00.000     0:00:04.000     165 888         332
00004.M2TS      0:00:04.000     2:10:41.000     32 983 160 832  33 652
CHAPTERS:
Number          Time In         Length          Avg Video Rate  Max 1-Sec Rate  Max 1-Sec Time  Max 5-Sec Rate  Max 5-Sec Time  Max 10Sec Rate  Max 10Sec Time  Avg Frame Size  Max Frame Size  Max Frame Time
------          -------         ------          --------------  --------------  --------------  --------------  --------------  --------------  --------------  --------------  --------------  --------------
1               0:00:00.000     0:00:04.000     243 kbps        370 kbps        00:00:00.000    0 kbps          00:00:00.000    0 kbps          00:00:00.000    1 251 bytes     6 857 bytes     00:00:03.500
2               0:00:04.000     0:15:36.458     24 687 kbps     42 611 kbps     00:03:27.458    36 342 kbps     00:00:51.416    35 788 kbps     00:00:48.375    128 578 bytes   895 691 bytes   00:00:56.416
3               0:15:40.458     0:16:20.958     25 360 kbps     44 404 kbps     00:25:41.749    31 649 kbps     00:17:02.458    30 379 kbps     00:16:56.958    132 086 bytes   878 754 bytes   00:25:20.875
4               0:32:01.416     0:14:05.708     25 713 kbps     39 434 kbps     00:41:05.333    32 046 kbps     00:42:19.291    28 705 kbps     00:42:14.083    133 923 bytes   756 533 bytes   00:41:05.375
5               0:46:07.125     0:17:15.125     25 386 kbps     40 334 kbps     01:00:58.875    29 171 kbps     00:53:23.666    27 925 kbps     00:46:29.083    132 217 bytes   931 524 bytes   01:00:58.916
6               1:03:22.250     0:17:21.750     25 398 kbps     36 226 kbps     01:19:55.958    32 713 kbps     01:19:55.958    31 857 kbps     01:19:51.958    132 282 bytes   647 660 bytes   01:19:53.000
7               1:20:44.000     0:15:07.416     25 507 kbps     41 894 kbps     01:21:31.874    30 375 kbps     01:28:03.916    28 281 kbps     01:21:31.749    132 850 bytes   901 137 bytes   01:21:31.916
8               1:35:51.416     0:15:17.708     25 483 kbps     38 558 kbps     01:43:18.666    31 973 kbps     01:43:27.666    30 311 kbps     01:44:17.208    132 726 bytes   634 724 bytes   01:36:21.416
9               1:51:09.125     0:19:35.875     23 630 kbps     46 682 kbps     02:00:54.541    36 472 kbps     02:10:19.333    34 669 kbps     02:07:56.291    123 075 bytes   732 460 bytes   02:01:13.958
STREAM DIAGNOSTICS:
File            PID             Type            Codec           Language                Seconds                 Bitrate                 Bytes           Packets
----            ---             ----            -----           --------                --------------          --------------          -------------   -----
00003.M2TS      4113 (0x1011)   0x1B            AVC                                     3,875                   245                     118 890         682
00004.M2TS      4113 (0x1011)   0x1B            AVC                                     7840,833                25 099                  24 599 375 076  133 802 065
00004.M2TS      4352 (0x1100)   0x80            LPCM            rus (Russian)           7840,833                6 919                   6 780 883 828   37 636 797
QUICK SUMMARY:
Disc Title: Stalingrad_2013
Disc Size: 35 212 277 651 bytes
Protection: AACS
BD-Java: Yes
Playlist: 01002.MPLS
Size: 32 983 326 720 bytes
Length: 2:10:45.000
Total Bitrate: 33,64 Mbps
Video: MPEG-4 AVC Video / 25086 kbps / 1080p / 24 fps / 16:9 / High Profile 4.1
Audio: Russian / LPCM Audio / 5.1 / 48 kHz / 6912 kbps / 24-bit
********************
PLAYLIST: 00004.MPLS
********************
Код:
Total   Video
Title                                                           Codec   Length  Movie Size      Disc Size       Bitrate Bitrate Main Audio Track                          Secondary Audio Track
-----                                                           ------  ------- --------------  --------------  ------- ------- ------------------                        ---------------------
00004.MPLS                                                      AVC     2:10:41 32 983 160 832  35 212 277 651  33,65   25,10   LPCM 5.1 6912Kbps (48kHz/24-bit)
Код:
DISC INFO:
Disc Title:     Stalingrad_2013
Disc Size:      35 212 277 651 bytes
Protection:     AACS
BD-Java:        Yes
BDInfo:         0.5.8
PLAYLIST REPORT:
Name:                   00004.MPLS
Length:                 2:10:41.000 (h:m:s.ms)
Size:                   32 983 160 832 bytes
Total Bitrate:          33,65 Mbps
VIDEO:
Codec                   Bitrate             Description
-----                   -------             -----------
MPEG-4 AVC Video        25098 kbps          1080p / 24 fps / 16:9 / High Profile 4.1
AUDIO:
Codec                           Language        Bitrate         Description
-----                           --------        -------         -----------
LPCM Audio                      Russian         6912 kbps       5.1 / 48 kHz / 6912 kbps / 24-bit
FILES:
Name            Time In         Length          Size            Total Bitrate
----            -------         ------          ----            -------------
00004.M2TS      0:00:00.000     2:10:41.000     32 983 160 832  33 652
CHAPTERS:
Number          Time In         Length          Avg Video Rate  Max 1-Sec Rate  Max 1-Sec Time  Max 5-Sec Rate  Max 5-Sec Time  Max 10Sec Rate  Max 10Sec Time  Avg Frame Size  Max Frame Size  Max Frame Time
------          -------         ------          --------------  --------------  --------------  --------------  --------------  --------------  --------------  --------------  --------------  --------------
1               0:00:00.000     2:10:41.000     25 098 kbps     46 682 kbps     02:00:50.541    36 472 kbps     02:10:15.333    35 788 kbps     00:00:44.375    130 720 bytes   931 524 bytes   01:00:54.916
STREAM DIAGNOSTICS:
File            PID             Type            Codec           Language                Seconds                 Bitrate                 Bytes           Packets
----            ---             ----            -----           --------                --------------          --------------          -------------   -----
00004.M2TS      4113 (0x1011)   0x1B            AVC                                     7840,833                25 099                  24 599 375 076  133 802 065
00004.M2TS      4352 (0x1100)   0x80            LPCM            rus (Russian)           7840,833                6 919                   6 780 883 828   37 636 797
QUICK SUMMARY:
Disc Title: Stalingrad_2013
Disc Size: 35 212 277 651 bytes
Protection: AACS
BD-Java: Yes
Playlist: 00004.MPLS
Size: 32 983 160 832 bytes
Length: 2:10:41.000
Total Bitrate: 33,65 Mbps
Video: MPEG-4 AVC Video / 25098 kbps / 1080p / 24 fps / 16:9 / High Profile 4.1
Audio: Russian / LPCM Audio / 5.1 / 48 kHz / 6912 kbps / 24-bit
********************
PLAYLIST: 00006.MPLS
********************
Код:
Total   Video
Title                                                           Codec   Length  Movie Size      Disc Size       Bitrate Bitrate Main Audio Track                          Secondary Audio Track
-----                                                           ------  ------- --------------  --------------  ------- ------- ------------------                        ---------------------
00006.MPLS                                                      AVC     0:05:41 636 223 488     35 212 277 651  14,89   12,42   LPCM 2.0 1536Kbps (48kHz/16-bit)
Код:
DISC INFO:
Disc Title:     Stalingrad_2013
Disc Size:      35 212 277 651 bytes
Protection:     AACS
BD-Java:        Yes
BDInfo:         0.5.8
PLAYLIST REPORT:
Name:                   00006.MPLS
Length:                 0:05:41.791 (h:m:s.ms)
Size:                   636 223 488 bytes
Total Bitrate:          14,89 Mbps
VIDEO:
Codec                   Bitrate             Description
-----                   -------             -----------
MPEG-4 AVC Video        12422 kbps          1080p / 24 fps / 16:9 / High Profile 4.1
AUDIO:
Codec                           Language        Bitrate         Description
-----                           --------        -------         -----------
LPCM Audio                      Russian         1536 kbps       2.0 / 48 kHz / 1536 kbps / 16-bit
FILES:
Name            Time In         Length          Size            Total Bitrate
----            -------         ------          ----            -------------
00006.M2TS      0:00:00.000     0:05:41.791     636 223 488     14 891
CHAPTERS:
Number          Time In         Length          Avg Video Rate  Max 1-Sec Rate  Max 1-Sec Time  Max 5-Sec Rate  Max 5-Sec Time  Max 10Sec Rate  Max 10Sec Time  Avg Frame Size  Max Frame Size  Max Frame Time
------          -------         ------          --------------  --------------  --------------  --------------  --------------  --------------  --------------  --------------  --------------  --------------
1               0:00:00.000     0:05:41.791     12 422 kbps     45 460 kbps     00:01:08.958    23 707 kbps     00:01:09.083    19 196 kbps     00:01:06.625    64 698 bytes    891 595 bytes   00:01:29.833
STREAM DIAGNOSTICS:
File            PID             Type            Codec           Language                Seconds                 Bitrate                 Bytes           Packets
----            ---             ----            -----           --------                --------------          --------------          -------------   -----
00006.M2TS      4113 (0x1011)   0x1B            AVC                                     341,708                 12 425                  530 714 813     2 888 276
00006.M2TS      4352 (0x1100)   0x80            LPCM            rus (Russian)           341,708                 1 543                   65 898 076      410 154
QUICK SUMMARY:
Disc Title: Stalingrad_2013
Disc Size: 35 212 277 651 bytes
Protection: AACS
BD-Java: Yes
Playlist: 00006.MPLS
Size: 636 223 488 bytes
Length: 0:05:41.791
Total Bitrate: 14,89 Mbps
Video: MPEG-4 AVC Video / 12422 kbps / 1080p / 24 fps / 16:9 / High Profile 4.1
Audio: Russian / LPCM Audio / 2.0 / 48 kHz / 1536 kbps / 16-bit
********************
PLAYLIST: 01004.MPLS
********************
Код:
Total   Video
Title                                                           Codec   Length  Movie Size      Disc Size       Bitrate Bitrate Main Audio Track                          Secondary Audio Track
-----                                                           ------  ------- --------------  --------------  ------- ------- ------------------                        ---------------------
01004.MPLS                                                      AVC     0:05:41 636 223 488     35 212 277 651  14,89   12,42   LPCM 2.0 1536Kbps (48kHz/16-bit)
Код:
DISC INFO:
Disc Title:     Stalingrad_2013
Disc Size:      35 212 277 651 bytes
Protection:     AACS
BD-Java:        Yes
BDInfo:         0.5.8
PLAYLIST REPORT:
Name:                   01004.MPLS
Length:                 0:05:41.791 (h:m:s.ms)
Size:                   636 223 488 bytes
Total Bitrate:          14,89 Mbps
VIDEO:
Codec                   Bitrate             Description
-----                   -------             -----------
MPEG-4 AVC Video        12422 kbps          1080p / 24 fps / 16:9 / High Profile 4.1
AUDIO:
Codec                           Language        Bitrate         Description
-----                           --------        -------         -----------
LPCM Audio                      Russian         1536 kbps       2.0 / 48 kHz / 1536 kbps / 16-bit
FILES:
Name            Time In         Length          Size            Total Bitrate
----            -------         ------          ----            -------------
00006.M2TS      0:00:00.000     0:05:41.791     636 223 488     14 891
CHAPTERS:
Number          Time In         Length          Avg Video Rate  Max 1-Sec Rate  Max 1-Sec Time  Max 5-Sec Rate  Max 5-Sec Time  Max 10Sec Rate  Max 10Sec Time  Avg Frame Size  Max Frame Size  Max Frame Time
------          -------         ------          --------------  --------------  --------------  --------------  --------------  --------------  --------------  --------------  --------------  --------------
1               0:00:00.000     0:05:41.791     12 422 kbps     45 460 kbps     00:01:08.958    23 707 kbps     00:01:09.083    19 196 kbps     00:01:06.625    64 698 bytes    891 595 bytes   00:01:29.833
STREAM DIAGNOSTICS:
File            PID             Type            Codec           Language                Seconds                 Bitrate                 Bytes           Packets
----            ---             ----            -----           --------                --------------          --------------          -------------   -----
00006.M2TS      4113 (0x1011)   0x1B            AVC                                     341,708                 12 425                  530 714 813     2 888 276
00006.M2TS      4352 (0x1100)   0x80            LPCM            rus (Russian)           341,708                 1 543                   65 898 076      410 154
QUICK SUMMARY:
Disc Title: Stalingrad_2013
Disc Size: 35 212 277 651 bytes
Protection: AACS
BD-Java: Yes
Playlist: 01004.MPLS
Size: 636 223 488 bytes
Length: 0:05:41.791
Total Bitrate: 14,89 Mbps
Video: MPEG-4 AVC Video / 12422 kbps / 1080p / 24 fps / 16:9 / High Profile 4.1
Audio: Russian / LPCM Audio / 2.0 / 48 kHz / 1536 kbps / 16-bit
********************
PLAYLIST: 00002.MPLS
********************
Код:
Total   Video
Title                                                           Codec   Length  Movie Size      Disc Size       Bitrate Bitrate Main Audio Track                          Secondary Audio Track
-----                                                           ------  ------- --------------  --------------  ------- ------- ------------------                        ---------------------
00002.MPLS                                                      AVC     0:03:31 454 072 320     35 212 277 651  17,22   15,95   DD AC3 5.1 448Kbps
Код:
DISC INFO:
Disc Title:     Stalingrad_2013
Disc Size:      35 212 277 651 bytes
Protection:     AACS
BD-Java:        Yes
BDInfo:         0.5.8
PLAYLIST REPORT:
Name:                   00002.MPLS
Length:                 0:03:31.000 (h:m:s.ms)
Size:                   454 072 320 bytes
Total Bitrate:          17,22 Mbps
VIDEO:
Codec                   Bitrate             Description
-----                   -------             -----------
MPEG-4 AVC Video        15953 kbps          1080p / 24 fps / 16:9 / High Profile 4.1
AUDIO:
Codec                           Language        Bitrate         Description
-----                           --------        -------         -----------
Dolby Digital Audio             Russian         448 kbps        5.1 / 48 kHz / 448 kbps
FILES:
Name            Time In         Length          Size            Total Bitrate
----            -------         ------          ----            -------------
00002.M2TS      0:00:00.000     0:03:31.000     454 072 320     17 216
CHAPTERS:
Number          Time In         Length          Avg Video Rate  Max 1-Sec Rate  Max 1-Sec Time  Max 5-Sec Rate  Max 5-Sec Time  Max 10Sec Rate  Max 10Sec Time  Avg Frame Size  Max Frame Size  Max Frame Time
------          -------         ------          --------------  --------------  --------------  --------------  --------------  --------------  --------------  --------------  --------------  --------------
1               0:00:00.000     0:03:31.000     15 953 kbps     31 237 kbps     00:00:00.166    21 148 kbps     00:00:00.249    19 704 kbps     00:00:00.000    83 086 bytes    980 693 bytes   00:00:00.583
STREAM DIAGNOSTICS:
File            PID             Type            Codec           Language                Seconds                 Bitrate                 Bytes           Packets
----            ---             ----            -----           --------                --------------          --------------          -------------   -----
00002.M2TS      4113 (0x1011)   0x1B            AVC                                     210,833                 15 965                  420 747 392     2 289 626
00002.M2TS      4352 (0x1100)   0x81            AC3             rus (Russian)           210,833                 448                     11 816 448      65 940
QUICK SUMMARY:
Disc Title: Stalingrad_2013
Disc Size: 35 212 277 651 bytes
Protection: AACS
BD-Java: Yes
Playlist: 00002.MPLS
Size: 454 072 320 bytes
Length: 0:03:31.000
Total Bitrate: 17,22 Mbps
Video: MPEG-4 AVC Video / 15953 kbps / 1080p / 24 fps / 16:9 / High Profile 4.1
Audio: Russian / Dolby Digital Audio / 5.1 / 48 kHz / 448 kbps
********************
PLAYLIST: 01001.MPLS
********************
Код:
Total   Video
Title                                                           Codec   Length  Movie Size      Disc Size       Bitrate Bitrate Main Audio Track                          Secondary Audio Track
-----                                                           ------  ------- --------------  --------------  ------- ------- ------------------                        ---------------------
01001.MPLS                                                      AVC     0:03:31 454 072 320     35 212 277 651  17,22   15,95   DD AC3 5.1 448Kbps
Код:
DISC INFO:
Disc Title:     Stalingrad_2013
Disc Size:      35 212 277 651 bytes
Protection:     AACS
BD-Java:        Yes
BDInfo:         0.5.8
PLAYLIST REPORT:
Name:                   01001.MPLS
Length:                 0:03:31.000 (h:m:s.ms)
Size:                   454 072 320 bytes
Total Bitrate:          17,22 Mbps
VIDEO:
Codec                   Bitrate             Description
-----                   -------             -----------
MPEG-4 AVC Video        15953 kbps          1080p / 24 fps / 16:9 / High Profile 4.1
AUDIO:
Codec                           Language        Bitrate         Description
-----                           --------        -------         -----------
Dolby Digital Audio             Russian         448 kbps        5.1 / 48 kHz / 448 kbps
FILES:
Name            Time In         Length          Size            Total Bitrate
----            -------         ------          ----            -------------
00002.M2TS      0:00:00.000     0:03:31.000     454 072 320     17 216
CHAPTERS:
Number          Time In         Length          Avg Video Rate  Max 1-Sec Rate  Max 1-Sec Time  Max 5-Sec Rate  Max 5-Sec Time  Max 10Sec Rate  Max 10Sec Time  Avg Frame Size  Max Frame Size  Max Frame Time
------          -------         ------          --------------  --------------  --------------  --------------  --------------  --------------  --------------  --------------  --------------  --------------
1               0:00:00.000     0:00:01.250     31 026 kbps     31 237 kbps     00:00:00.166    0 kbps          00:00:00.000    0 kbps          00:00:00.000    156 380 bytes   980 693 bytes   00:00:00.583
2               0:00:01.250     0:03:24.750     15 888 kbps     20 897 kbps     00:00:06.958    19 621 kbps     00:00:02.874    18 517 kbps     00:00:01.666    82 751 bytes    954 658 bytes   00:02:28.750
3               0:03:26.000     0:00:05.000     14 820 kbps     17 626 kbps     00:03:27.625    0 kbps          00:00:00.000    0 kbps          00:00:00.000    77 835 bytes    954 657 bytes   00:03:26.500
STREAM DIAGNOSTICS:
File            PID             Type            Codec           Language                Seconds                 Bitrate                 Bytes           Packets
----            ---             ----            -----           --------                --------------          --------------          -------------   -----
00002.M2TS      4113 (0x1011)   0x1B            AVC                                     210,833                 15 965                  420 747 392     2 289 626
00002.M2TS      4352 (0x1100)   0x81            AC3             rus (Russian)           210,833                 448                     11 816 448      65 940
QUICK SUMMARY:
Disc Title: Stalingrad_2013
Disc Size: 35 212 277 651 bytes
Protection: AACS
BD-Java: Yes
Playlist: 01001.MPLS
Size: 454 072 320 bytes
Length: 0:03:31.000
Total Bitrate: 17,22 Mbps
Video: MPEG-4 AVC Video / 15953 kbps / 1080p / 24 fps / 16:9 / High Profile 4.1
Audio: Russian / Dolby Digital Audio / 5.1 / 48 kHz / 448 kbps
********************
PLAYLIST: 00005.MPLS
********************
Код:
Total   Video
Title                                                           Codec   Length  Movie Size      Disc Size       Bitrate Bitrate Main Audio Track                          Secondary Audio Track
-----                                                           ------  ------- --------------  --------------  ------- ------- ------------------                        ---------------------
00005.MPLS                                                      AVC     0:03:23 396 337 152     35 212 277 651  15,62   14,42   DD AC3 5.1 448Kbps
Код:
DISC INFO:
Disc Title:     Stalingrad_2013
Disc Size:      35 212 277 651 bytes
Protection:     AACS
BD-Java:        Yes
BDInfo:         0.5.8
PLAYLIST REPORT:
Name:                   00005.MPLS
Length:                 0:03:23.000 (h:m:s.ms)
Size:                   396 337 152 bytes
Total Bitrate:          15,62 Mbps
VIDEO:
Codec                   Bitrate             Description
-----                   -------             -----------
MPEG-4 AVC Video        14424 kbps          1080p / 24 fps / 16:9 / High Profile 4.1
AUDIO:
Codec                           Language        Bitrate         Description
-----                           --------        -------         -----------
Dolby Digital Audio             Russian         448 kbps        5.1 / 48 kHz / 448 kbps
FILES:
Name            Time In         Length          Size            Total Bitrate
----            -------         ------          ----            -------------
00005.M2TS      0:00:00.000     0:03:23.000     396 337 152     15 619
CHAPTERS:
Number          Time In         Length          Avg Video Rate  Max 1-Sec Rate  Max 1-Sec Time  Max 5-Sec Rate  Max 5-Sec Time  Max 10Sec Rate  Max 10Sec Time  Avg Frame Size  Max Frame Size  Max Frame Time
------          -------         ------          --------------  --------------  --------------  --------------  --------------  --------------  --------------  --------------  --------------  --------------
1               0:00:00.000     0:03:23.000     14 424 kbps     40 787 kbps     00:00:21.708    22 985 kbps     00:00:19.208    20 484 kbps     00:02:13.208    75 125 bytes    937 403 bytes   00:02:29.333
STREAM DIAGNOSTICS:
File            PID             Type            Codec           Language                Seconds                 Bitrate                 Bytes           Packets
----            ---             ----            -----           --------                --------------          --------------          -------------   -----
00005.M2TS      4113 (0x1011)   0x1B            AVC                                     202,917                 14 430                  366 007 202     1 991 776
00005.M2TS      4352 (0x1100)   0x81            AC3             rus (Russian)           202,917                 448                     11 368 448      63 440
QUICK SUMMARY:
Disc Title: Stalingrad_2013
Disc Size: 35 212 277 651 bytes
Protection: AACS
BD-Java: Yes
Playlist: 00005.MPLS
Size: 396 337 152 bytes
Length: 0:03:23.000
Total Bitrate: 15,62 Mbps
Video: MPEG-4 AVC Video / 14424 kbps / 1080p / 24 fps / 16:9 / High Profile 4.1
Audio: Russian / Dolby Digital Audio / 5.1 / 48 kHz / 448 kbps
********************
PLAYLIST: 01003.MPLS
********************
Код:
Total   Video
Title                                                           Codec   Length  Movie Size      Disc Size       Bitrate Bitrate Main Audio Track                          Secondary Audio Track
-----                                                           ------  ------- --------------  --------------  ------- ------- ------------------                        ---------------------
01003.MPLS                                                      AVC     0:03:23 396 337 152     35 212 277 651  15,62   14,42   DD AC3 5.1 448Kbps
Код:
DISC INFO:
Disc Title:     Stalingrad_2013
Disc Size:      35 212 277 651 bytes
Protection:     AACS
BD-Java:        Yes
BDInfo:         0.5.8
PLAYLIST REPORT:
Name:                   01003.MPLS
Length:                 0:03:23.000 (h:m:s.ms)
Size:                   396 337 152 bytes
Total Bitrate:          15,62 Mbps
VIDEO:
Codec                   Bitrate             Description
-----                   -------             -----------
MPEG-4 AVC Video        14424 kbps          1080p / 24 fps / 16:9 / High Profile 4.1
AUDIO:
Codec                           Language        Bitrate         Description
-----                           --------        -------         -----------
Dolby Digital Audio             Russian         448 kbps        5.1 / 48 kHz / 448 kbps
FILES:
Name            Time In         Length          Size            Total Bitrate
----            -------         ------          ----            -------------
00005.M2TS      0:00:00.000     0:03:23.000     396 337 152     15 619
CHAPTERS:
Number          Time In         Length          Avg Video Rate  Max 1-Sec Rate  Max 1-Sec Time  Max 5-Sec Rate  Max 5-Sec Time  Max 10Sec Rate  Max 10Sec Time  Avg Frame Size  Max Frame Size  Max Frame Time
------          -------         ------          --------------  --------------  --------------  --------------  --------------  --------------  --------------  --------------  --------------  --------------
1               0:00:00.000     0:03:23.000     14 424 kbps     40 787 kbps     00:00:21.708    22 985 kbps     00:00:19.208    20 484 kbps     00:02:13.208    75 125 bytes    937 403 bytes   00:02:29.333
STREAM DIAGNOSTICS:
File            PID             Type            Codec           Language                Seconds                 Bitrate                 Bytes           Packets
----            ---             ----            -----           --------                --------------          --------------          -------------   -----
00005.M2TS      4113 (0x1011)   0x1B            AVC                                     202,917                 14 430                  366 007 202     1 991 776
00005.M2TS      4352 (0x1100)   0x81            AC3             rus (Russian)           202,917                 448                     11 368 448      63 440
QUICK SUMMARY:
Disc Title: Stalingrad_2013
Disc Size: 35 212 277 651 bytes
Protection: AACS
BD-Java: Yes
Playlist: 01003.MPLS
Size: 396 337 152 bytes
Length: 0:03:23.000
Total Bitrate: 15,62 Mbps
Video: MPEG-4 AVC Video / 14424 kbps / 1080p / 24 fps / 16:9 / High Profile 4.1
Audio: Russian / Dolby Digital Audio / 5.1 / 48 kHz / 448 kbps
********************
PLAYLIST: 00007.MPLS
********************
Код:
Total   Video
Title                                                           Codec   Length  Movie Size      Disc Size       Bitrate Bitrate Main Audio Track                          Secondary Audio Track
-----                                                           ------  ------- --------------  --------------  ------- ------- ------------------                        ---------------------
00007.MPLS                                                      AVC     0:02:41 354 336 768     35 212 277 651  17,58   15,00   LPCM 2.0 1536Kbps (48kHz/16-bit)
Код:
DISC INFO:
Disc Title:     Stalingrad_2013
Disc Size:      35 212 277 651 bytes
Protection:     AACS
BD-Java:        Yes
BDInfo:         0.5.8
PLAYLIST REPORT:
Name:                   00007.MPLS
Length:                 0:02:41.208 (h:m:s.ms)
Size:                   354 336 768 bytes
Total Bitrate:          17,58 Mbps
VIDEO:
Codec                   Bitrate             Description
-----                   -------             -----------
MPEG-4 AVC Video        14999 kbps          1080p / 24 fps / 16:9 / High Profile 4.1
AUDIO:
Codec                           Language        Bitrate         Description
-----                           --------        -------         -----------
LPCM Audio                      Russian         1536 kbps       2.0 / 48 kHz / 1536 kbps / 16-bit
FILES:
Name            Time In         Length          Size            Total Bitrate
----            -------         ------          ----            -------------
00007.M2TS      0:00:00.000     0:02:41.208     354 336 768     17 584
CHAPTERS:
Number          Time In         Length          Avg Video Rate  Max 1-Sec Rate  Max 1-Sec Time  Max 5-Sec Rate  Max 5-Sec Time  Max 10Sec Rate  Max 10Sec Time  Avg Frame Size  Max Frame Size  Max Frame Time
------          -------         ------          --------------  --------------  --------------  --------------  --------------  --------------  --------------  --------------  --------------  --------------
1               0:00:00.000     0:02:41.208     14 999 kbps     49 593 kbps     00:01:57.791    29 020 kbps     00:02:01.416    26 512 kbps     00:01:57.875    78 121 bytes    868 153 bytes   00:02:04.291
STREAM DIAGNOSTICS:
File            PID             Type            Codec           Language                Seconds                 Bitrate                 Bytes           Packets
----            ---             ----            -----           --------                --------------          --------------          -------------   -----
00007.M2TS      4113 (0x1011)   0x1B            AVC                                     161,042                 15 015                  302 248 471     1 644 871
00007.M2TS      4352 (0x1100)   0x80            LPCM            rus (Russian)           161,042                 1 544                   31 081 288      193 452
QUICK SUMMARY:
Disc Title: Stalingrad_2013
Disc Size: 35 212 277 651 bytes
Protection: AACS
BD-Java: Yes
Playlist: 00007.MPLS
Size: 354 336 768 bytes
Length: 0:02:41.208
Total Bitrate: 17,58 Mbps
Video: MPEG-4 AVC Video / 14999 kbps / 1080p / 24 fps / 16:9 / High Profile 4.1
Audio: Russian / LPCM Audio / 2.0 / 48 kHz / 1536 kbps / 16-bit
********************
PLAYLIST: 01005.MPLS
********************
Код:
Total   Video
Title                                                           Codec   Length  Movie Size      Disc Size       Bitrate Bitrate Main Audio Track                          Secondary Audio Track
-----                                                           ------  ------- --------------  --------------  ------- ------- ------------------                        ---------------------
01005.MPLS                                                      AVC     0:02:41 354 336 768     35 212 277 651  17,58   15,00   LPCM 2.0 1536Kbps (48kHz/16-bit)
Код:
DISC INFO:
Disc Title:     Stalingrad_2013
Disc Size:      35 212 277 651 bytes
Protection:     AACS
BD-Java:        Yes
BDInfo:         0.5.8
PLAYLIST REPORT:
Name:                   01005.MPLS
Length:                 0:02:41.208 (h:m:s.ms)
Size:                   354 336 768 bytes
Total Bitrate:          17,58 Mbps
VIDEO:
Codec                   Bitrate             Description
-----                   -------             -----------
MPEG-4 AVC Video        14999 kbps          1080p / 24 fps / 16:9 / High Profile 4.1
AUDIO:
Codec                           Language        Bitrate         Description
-----                           --------        -------         -----------
LPCM Audio                      Russian         1536 kbps       2.0 / 48 kHz / 1536 kbps / 16-bit
FILES:
Name            Time In         Length          Size            Total Bitrate
----            -------         ------          ----            -------------
00007.M2TS      0:00:00.000     0:02:41.208     354 336 768     17 584
CHAPTERS:
Number          Time In         Length          Avg Video Rate  Max 1-Sec Rate  Max 1-Sec Time  Max 5-Sec Rate  Max 5-Sec Time  Max 10Sec Rate  Max 10Sec Time  Avg Frame Size  Max Frame Size  Max Frame Time
------          -------         ------          --------------  --------------  --------------  --------------  --------------  --------------  --------------  --------------  --------------  --------------
1               0:00:00.000     0:02:41.208     14 999 kbps     49 593 kbps     00:01:57.791    29 020 kbps     00:02:01.416    26 512 kbps     00:01:57.875    78 121 bytes    868 153 bytes   00:02:04.291
STREAM DIAGNOSTICS:
File            PID             Type            Codec           Language                Seconds                 Bitrate                 Bytes           Packets
----            ---             ----            -----           --------                --------------          --------------          -------------   -----
00007.M2TS      4113 (0x1011)   0x1B            AVC                                     161,042                 15 015                  302 248 471     1 644 871
00007.M2TS      4352 (0x1100)   0x80            LPCM            rus (Russian)           161,042                 1 544                   31 081 288      193 452
QUICK SUMMARY:
Disc Title: Stalingrad_2013
Disc Size: 35 212 277 651 bytes
Protection: AACS
BD-Java: Yes
Playlist: 01005.MPLS
Size: 354 336 768 bytes
Length: 0:02:41.208
Total Bitrate: 17,58 Mbps
Video: MPEG-4 AVC Video / 14999 kbps / 1080p / 24 fps / 16:9 / High Profile 4.1
Audio: Russian / LPCM Audio / 2.0 / 48 kHz / 1536 kbps / 16-bit
********************
PLAYLIST: 00008.MPLS
********************
Код:
Total   Video
Title                                                           Codec   Length  Movie Size      Disc Size       Bitrate Bitrate Main Audio Track                          Secondary Audio Track
-----                                                           ------  ------- --------------  --------------  ------- ------- ------------------                        ---------------------
00008.MPLS                                                      AVC     0:02:34 339 271 680     35 212 277 651  17,58   15,00   LPCM 2.0 1536Kbps (48kHz/16-bit)
Код:
DISC INFO:
Disc Title:     Stalingrad_2013
Disc Size:      35 212 277 651 bytes
Protection:     AACS
BD-Java:        Yes
BDInfo:         0.5.8
PLAYLIST REPORT:
Name:                   00008.MPLS
Length:                 0:02:34.375 (h:m:s.ms)
Size:                   339 271 680 bytes
Total Bitrate:          17,58 Mbps
VIDEO:
Codec                   Bitrate             Description
-----                   -------             -----------
MPEG-4 AVC Video        14997 kbps          1080p / 24 fps / 16:9 / High Profile 4.1
AUDIO:
Codec                           Language        Bitrate         Description
-----                           --------        -------         -----------
LPCM Audio                      Russian         1536 kbps       2.0 / 48 kHz / 1536 kbps / 16-bit
FILES:
Name            Time In         Length          Size            Total Bitrate
----            -------         ------          ----            -------------
00008.M2TS      0:00:00.000     0:02:34.375     339 271 680     17 582
CHAPTERS:
Number          Time In         Length          Avg Video Rate  Max 1-Sec Rate  Max 1-Sec Time  Max 5-Sec Rate  Max 5-Sec Time  Max 10Sec Rate  Max 10Sec Time  Avg Frame Size  Max Frame Size  Max Frame Time
------          -------         ------          --------------  --------------  --------------  --------------  --------------  --------------  --------------  --------------  --------------  --------------
1               0:00:00.000     0:02:34.375     14 997 kbps     43 864 kbps     00:01:01.125    26 419 kbps     00:00:39.458    22 952 kbps     00:00:37.041    78 131 bytes    905 463 bytes   00:01:02.166
STREAM DIAGNOSTICS:
File            PID             Type            Codec           Language                Seconds                 Bitrate                 Bytes           Packets
----            ---             ----            -----           --------                --------------          --------------          -------------   -----
00008.M2TS      4113 (0x1011)   0x1B            AVC                                     154,292                 15 005                  289 397 349     1 574 887
00008.M2TS      4352 (0x1100)   0x80            LPCM            rus (Russian)           154,292                 1 543                   29 763 500      185 250
QUICK SUMMARY:
Disc Title: Stalingrad_2013
Disc Size: 35 212 277 651 bytes
Protection: AACS
BD-Java: Yes
Playlist: 00008.MPLS
Size: 339 271 680 bytes
Length: 0:02:34.375
Total Bitrate: 17,58 Mbps
Video: MPEG-4 AVC Video / 14997 kbps / 1080p / 24 fps / 16:9 / High Profile 4.1
Audio: Russian / LPCM Audio / 2.0 / 48 kHz / 1536 kbps / 16-bit
********************
PLAYLIST: 01006.MPLS
********************
Код:
Total   Video
Title                                                           Codec   Length  Movie Size      Disc Size       Bitrate Bitrate Main Audio Track                          Secondary Audio Track
-----                                                           ------  ------- --------------  --------------  ------- ------- ------------------                        ---------------------
01006.MPLS                                                      AVC     0:02:34 339 271 680     35 212 277 651  17,58   15,00   LPCM 2.0 1536Kbps (48kHz/16-bit)
Код:
DISC INFO:
Disc Title:     Stalingrad_2013
Disc Size:      35 212 277 651 bytes
Protection:     AACS
BD-Java:        Yes
BDInfo:         0.5.8
PLAYLIST REPORT:
Name:                   01006.MPLS
Length:                 0:02:34.375 (h:m:s.ms)
Size:                   339 271 680 bytes
Total Bitrate:          17,58 Mbps
VIDEO:
Codec                   Bitrate             Description
-----                   -------             -----------
MPEG-4 AVC Video        14997 kbps          1080p / 24 fps / 16:9 / High Profile 4.1
AUDIO:
Codec                           Language        Bitrate         Description
-----                           --------        -------         -----------
LPCM Audio                      Russian         1536 kbps       2.0 / 48 kHz / 1536 kbps / 16-bit
FILES:
Name            Time In         Length          Size            Total Bitrate
----            -------         ------          ----            -------------
00008.M2TS      0:00:00.000     0:02:34.375     339 271 680     17 582
CHAPTERS:
Number          Time In         Length          Avg Video Rate  Max 1-Sec Rate  Max 1-Sec Time  Max 5-Sec Rate  Max 5-Sec Time  Max 10Sec Rate  Max 10Sec Time  Avg Frame Size  Max Frame Size  Max Frame Time
------          -------         ------          --------------  --------------  --------------  --------------  --------------  --------------  --------------  --------------  --------------  --------------
1               0:00:00.000     0:02:34.375     14 997 kbps     43 864 kbps     00:01:01.125    26 419 kbps     00:00:39.458    22 952 kbps     00:00:37.041    78 131 bytes    905 463 bytes   00:01:02.166
STREAM DIAGNOSTICS:
File            PID             Type            Codec           Language                Seconds                 Bitrate                 Bytes           Packets
----            ---             ----            -----           --------                --------------          --------------          -------------   -----
00008.M2TS      4113 (0x1011)   0x1B            AVC                                     154,292                 15 005                  289 397 349     1 574 887
00008.M2TS      4352 (0x1100)   0x80            LPCM            rus (Russian)           154,292                 1 543                   29 763 500      185 250
QUICK SUMMARY:
Disc Title: Stalingrad_2013
Disc Size: 35 212 277 651 bytes
Protection: AACS
BD-Java: Yes
Playlist: 01006.MPLS
Size: 339 271 680 bytes
Length: 0:02:34.375
Total Bitrate: 17,58 Mbps
Video: MPEG-4 AVC Video / 14997 kbps / 1080p / 24 fps / 16:9 / High Profile 4.1
Audio: Russian / LPCM Audio / 2.0 / 48 kHz / 1536 kbps / 16-bit
********************
PLAYLIST: 01000.MPLS
********************
Код:
Total   Video
Title                                                           Codec   Length  Movie Size      Disc Size       Bitrate Bitrate Main Audio Track                          Secondary Audio Track
-----                                                           ------  ------- --------------  --------------  ------- ------- ------------------                        ---------------------
01000.MPLS                                                      AVC     0:00:22 31 322 112      35 212 277 651  11,04   10,28   DD AC3 5.1 448Kbps
Код:
DISC INFO:
Disc Title:     Stalingrad_2013
Disc Size:      35 212 277 651 bytes
Protection:     AACS
BD-Java:        Yes
BDInfo:         0.5.8
PLAYLIST REPORT:
Name:                   01000.MPLS
Length:                 0:00:22.689 (h:m:s.ms)
Size:                   31 322 112 bytes
Total Bitrate:          11,04 Mbps
VIDEO:
Codec                   Bitrate             Description
-----                   -------             -----------
MPEG-4 AVC Video        10281 kbps          1080p / 23,976 fps / 16:9 / High Profile 4.1
AUDIO:
Codec                           Language        Bitrate         Description
-----                           --------        -------         -----------
Dolby Digital Audio             Russian         448 kbps        5.1 / 48 kHz / 448 kbps
FILES:
Name            Time In         Length          Size            Total Bitrate
----            -------         ------          ----            -------------
00000.M2TS      0:00:00.000     0:00:12.012     4 921 344       3 278
00001.M2TS      0:00:12.012     0:00:10.677     26 400 768      19 781
CHAPTERS:
Number          Time In         Length          Avg Video Rate  Max 1-Sec Rate  Max 1-Sec Time  Max 5-Sec Rate  Max 5-Sec Time  Max 10Sec Rate  Max 10Sec Time  Avg Frame Size  Max Frame Size  Max Frame Time
------          -------         ------          --------------  --------------  --------------  --------------  --------------  --------------  --------------  --------------  --------------  --------------
1               0:00:00.000     0:00:12.012     3 061 kbps      9 002 kbps      00:00:11.011    3 347 kbps      00:00:06.715    2 678 kbps      00:00:02.002    15 902 bytes    179 417 bytes   00:00:08.258
2               0:00:12.012     0:00:10.677     18 403 kbps     28 437 kbps     00:00:13.722    24 957 kbps     00:00:13.763    19 568 kbps     00:00:12.095    96 323 bytes    322 135 bytes   00:00:19.936
STREAM DIAGNOSTICS:
File            PID             Type            Codec           Language                Seconds                 Bitrate                 Bytes           Packets
----            ---             ----            -----           --------                --------------          --------------          -------------   -----
00000.M2TS      4113 (0x1011)   0x1B            AVC                                     11,845                  3 102                   4 593 114       25 099
00001.M2TS      4113 (0x1011)   0x1B            AVC                                     10,594                  18 550                  24 564 916      133 652
00001.M2TS      4352 (0x1100)   0x81            AC3             rus (Russian)           10,594                  452                     598 528         3 340
QUICK SUMMARY:
Disc Title: Stalingrad_2013
Disc Size: 35 212 277 651 bytes
Protection: AACS
BD-Java: Yes
Playlist: 01000.MPLS
Size: 31 322 112 bytes
Length: 0:00:22.689
Total Bitrate: 11,04 Mbps
Video: MPEG-4 AVC Video / 10281 kbps / 1080p / 23,976 fps / 16:9 / High Profile 4.1
Audio: Russian / Dolby Digital Audio / 5.1 / 48 kHz / 448 kbps

Скриншоты меню

Скриншоты

Other forum [Profile] [PM]

Dracula

Longevity: 7 years 11 months

Posts: 11005

Торрент-статистика

Post 06-Dec-2013 07:51 (after 1 day 22 hours)

Топик был перенесен из форума Зарубежное кино (HD Video) в форум Наше кино


Delia
 
Display posts from previous:    
Reply to topic

The time now is: Today 15:55

All times are GMT + 3 Hours



You cannot post new topics in this forum
You cannot reply to topics in this forum
You cannot edit your posts in this forum
You cannot delete your posts in this forum
You cannot vote in polls in this forum
You cannot attach files in this forum
You cannot download files in this forum