Today is a free download without charge Download

Discovery: Был ли Джон Кеннеди жертвой мафии? / Did the Mob Kill JFK? (2009) SATRip

Reply to topic
 
Author
Message

UndegraundMen ®

Longevity: 7 years 7 months

Posts: 25145

Торрент-статистика

Post 03-Dec-2013 19:42

[Quote]

Был ли Джон Кеннеди жертвой мафии? / Did the Mob Kill JFK? (2009) SATRip- Год выпуска: 2009
Производство: США / Peacock Productions
Режиссер: Роберт Эриксон
Жанр: документальный, история-Перевод: Профессиональный (одноголосный)
Cубтитры: Отсутствуют-Дата мировой премьеры: 22 ноября 2009
Дата российской премьеры: N/A
Дата выхода DVD/Blu-Ray: N/A-Описание фильма:
После убийства президента Кеннеди осталось наследие секретности и обмана. Если верить показаниям свидетелей, что на площади стрелявших было двое - это либо тайный замысел, либо одно из самых невероятных совпадений. Через 46 лет после убийства появился информатор, чтобы открыть самую темную тайну мафии. И если это правда - мафия убила президента, и не была за это наказана.- -Продолжительность: 00:44:06
Качество видео: SATRip-Видеокодек: XviD
Размер кадра: 720x400
Битрейт видео: 1580 Kbps
Аудио#1: [RUS]: MP3 2.0; 128.00 kbps; 48.0 KHz; 16-bits
Аудио#2: [ENG]: MP3 2.0; 128.00 kbps; 48.0 KHz; 16-bits

Bitrate Viewer

MediaInfo:

Код:
General
Complete name                            : F:\Did the Mob Kill JFK (2009) SATRip.avi
Format                                   : AVI
Format/Info                              : Audio Video Interleave
File size                                : 584 MiB
Duration                                 : 44mn 6s
Overall bit rate                         : 1 850 Kbps
Writing application                      : VirtualDubMod 1.5.10.3 | [url=http://www.virtualdub-fr.org]www.virtualdub-fr.org[/url] || (build 2550/release)
Writing library                          : VirtualDubMod build 2550/release
Video
ID                                       : 0
Format                                   : MPEG-4 Visual
Format profile                           : Advanced [email protected]
Format settings, BVOP                    : 2
Format settings, QPel                    : No
Format settings, GMC                     : No warppoints
Format settings, Matrix                  : Custom
Codec ID                                 : XVID
Codec ID/Hint                            : XviD
Duration                                 : 44mn 6s
Bit rate                                 : 1 580 Kbps
Width                                    : 720 pixels
Height                                   : 400 pixels
Display aspect ratio                     : 16:9
Frame rate                               : 25.000 fps
Color space                              : YUV
Chroma subsampling                       : 4:2:0
Bit depth                                : 8 bits
Scan type                                : Progressive
Compression mode                         : Lossy
Bits/(Pixel*Frame)                       : 0.219
Stream size                              : 498 MiB (85%)
Writing library                          : XviD 73
Audio #1
ID                                       : 1
Format                                   : MPEG Audio
Format version                           : Version 1
Format profile                           : Layer 3
Codec ID                                 : 55
Codec ID/Hint                            : MP3
Duration                                 : 44mn 6s
Bit rate mode                            : Constant
Bit rate                                 : 128 Kbps
Channel(s)                               : 2 channels
Sampling rate                            : 48.0 KHz
Compression mode                         : Lossy
Stream size                              : 40.4 MiB (7%)
Alignment                                : Aligned on interleaves
Interleave, duration                     : 40 ms (1.00 video frame)
Interleave, preload duration             : 504 ms
Writing library                          : LAME3.99r
Encoding settings                        : -m s -V 4 -q 0 -lowpass 17 -b 128
Audio #2
ID                                       : 2
Format                                   : MPEG Audio
Format version                           : Version 1
Format profile                           : Layer 3
Mode                                     : Joint stereo
Mode extension                           : MS Stereo
Codec ID                                 : 55
Codec ID/Hint                            : MP3
Duration                                 : 44mn 6s
Bit rate mode                            : Constant
Bit rate                                 : 128 Kbps
Channel(s)                               : 2 channels
Sampling rate                            : 48.0 KHz
Compression mode                         : Lossy
Stream size                              : 40.4 MiB (7%)
Alignment                                : Aligned on interleaves
Interleave, duration                     : 40 ms (1.00 video frame)
Interleave, preload duration             : 504 ms
Скриншоты:-          -
Other forum [Profile] [PM]
Display posts from previous:    
Reply to topic

The time now is: Today 02:50

All times are GMT + 3 Hours



You cannot post new topics in this forum
You cannot reply to topics in this forum
You cannot edit your posts in this forum
You cannot delete your posts in this forum
You cannot vote in polls in this forum
You cannot attach files in this forum
You cannot download files in this forum