Today is a free download without charge Download

Похороните меня за плинтусом (Сергей Снежкин) [2008 г., Драма, DVDRip]

Reply to topic
 
Author
Message

Joker-05 ®

Gender:

Longevity: 6 years 11 months

Posts: 8

Торрент-статистика

Post 03-Dec-2013 19:38

[Quote]

Похороните меня за плинтусом
Год выпуска: 2008
Страна: Россия
Жанр: Драма
Продолжительность: 01:50:50
Перевод: Не требуется
Режиссер: Сергей Снежкин
Продюссер: Владимир Железников, Михаил Литвак, Леонид Литвак
Сценарий: Сергей Снежкин, Павел Санаев
Премьера в мире: 23 декабря 2009

В ролях: Валерий Кухарешин, Анатолий Дзиваев, Константин Воробьёв, Алексей Петренко, Александр Дробитько, Мария Шукшина, Лиана Жвания, Роман Грибков, Денис Кириллов, Светлана Крючкова
Описание: Говорят, что российский кинематограф не развивается и живет лишь благодаря творениям великого Гайдая, Михалкова. Это не так. Просмотрев фильм «Похороните меня за плинтусом» режиссера Игоря Коняева, я убедилась – отечественный кинематограф жив и будет жить! На протяжении всего фильма я сидела затаив дыхание, практически не дышала – сюжет просто захватил меня и долго не отпускал мои мысли… Фильм – это повествование трагедии, которая объединила в себе судьбу мальчика Саши, его матери и бабушки, дедушки. Как же родная мать может отказаться от своего родного ребенка ради какого-то художника-алкоголика, как же любящий муж может бросить на произвол судьбы жену, мать своего ребенка ради карьеры? А в жизни нашей, к сожалению, все возможно…Смотрите фильм и понимайте – родители и дети – это самое ценное, что есть у нас и их нам никто и никогда не сможет заменить.
Качество: DVDRip
Формат: AVI
Видео кодек: XviD
Аудио кодек: AC3
Видео: 720x400 (1.80:1), 25 fps, XviD build 50 ~1257 kbps avg, 0.175 bit/pixel
Аудио #1: 48 kHz, AC3 Dolby Digital, 2/0 (L,R) ch, ~448 kbps avg
Аудио #2: 48.0 kHz, MPEG Layer 3, 2 ch, ~56.0 kbps

Трейлер

Media Info

Общее
Полное имя : F:\Joker 05\Фильмы\Фильмы 2\Похороните меня за плинтусом.2009.DVDRip.avi
Формат : AVI
Формат/Информация : Audio Video Interleave
Размер файла : 1,38 Гбайт
Продолжительность : 1 ч. 50 м.
Общий поток : 1777 Кбит/сек
Программа кодирования : VirtualDubMod 1.5.10.2 (build 2540/release)
Библиотека кодирования : VirtualDubMod build 2540/release
Видео
Идентификатор : 0
Формат : MPEG-4 Visual
Профиль формата : Advanced [email protected]
Параметр BVOP формата : 1
Параметр QPel формата : Нет
Параметр GMC формата : Без точки перехода
Параметр матрицы формата : Выборочная
Идентификатор кодека : XVID
Идентификатор кодека/Подсказка : XviD
Продолжительность : 1 ч. 50 м.
Битрейт : 1258 Кбит/сек
Ширина : 720 пикселей
Высота : 400 пикселей
Соотношение сторон : 16:9
Частота кадров : 25,000 кадров/сек
Цветовое пространство : YUV
Субдискретизация насыщенности : 4:2:0
Битовая глубина : 8 бит
Тип развёртки : Прогрессивная
Метод сжатия : С потерями
Бит/(Пиксели*Кадры) : 0.175
Размер потока : 998 Мбайт (71%)
Библиотека кодирования : XviD 1.2.1 (UTC 2008-12-04)
Аудио #1
Идентификатор : 1
Формат : AC-3
Формат/Информация : Audio Coding 3
Расширение режима : CM (complete main)
Параметр Endianness формата : Big
Идентификатор кодека : 2000
Продолжительность : 1 ч. 50 м.
Вид битрейта : Постоянный
Битрейт : 448 Кбит/сек
Каналы : 2 канала
Расположение каналов : Front: L R
Частота : 48,0 КГц
Битовая глубина : 16 бит
Метод сжатия : С потерями
Размер потока : 355 Мбайт (25%)
Выравнивание : Разделение по промежуткам
Продолжительность промежутка : 40 мс. (1,00 видеокадр)
Время предзагрузки промежутка : 500 мс.
Аудио #2
Идентификатор : 2
Формат : MPEG Audio
Версия формата : Version 1
Профиль формата : Layer 3
Режим : Joint stereo
Расширение режима : MS Stereo
Идентификатор кодека : 55
Идентификатор кодека/Подсказка : MP3
Продолжительность : 1 ч. 50 м.
Вид битрейта : Постоянный
Битрейт : 56,0 Кбит/сек
Каналы : 2 канала
Частота : 48,0 КГц
Метод сжатия : С потерями
Размер потока : 44,4 Мбайт (3%)
Выравнивание : Соединение по промежуткам
Продолжительность промежутка : 40 мс. (1,00 видеокадр)
Время предзагрузки промежутка : 504 мс.

Скриншоты

               
Other forum [Profile] [PM]
Display posts from previous:    
Reply to topic

The time now is: Today 22:16

All times are GMT + 3 Hours



You cannot post new topics in this forum
You cannot reply to topics in this forum
You cannot edit your posts in this forum
You cannot delete your posts in this forum
You cannot vote in polls in this forum
You cannot attach files in this forum
You cannot download files in this forum