Сегодня идет свободное скачивание без начисления Download

Форсаж. Пенталогия / The Fast and the Furious. Pentalogy ( Роб Коэн /Rob Cohen)(Боевик Детектив Драма Триллер.2001-2011) [H.264] BDRip

Ответить на тему
 
Автор
Сообщение

KirovSOFT ®

Пол:

Стаж: 6 лет 7 месяцев

Сообщений: 1272

Откуда: Кировская область -Оричи

Торрент-статистика

Пост 02-Дек-2013 22:07

[Цитировать]

Форсаж. Пенталогия
The Fast and the Furious. Pentalogy
-
Оригинальное название: Fast and the Furious Pentalogy
Русское название: Форсаж Пенталогия
Страна: США, Германия , Universal Pictures, Mikona Productions GmbH & Co. KG, Original Film
Год выхода: 2001-2011
Жанр: Боевик Детектив Драма Триллер
-- Форсаж /Fast and the Furious, The (2001) - Название: Форсаж
Оригинальное название: Fast and the Furious, The
Год выхода: 2001
Жанр: Боевик Детектив Драма Триллер
Режиссер: Роб Коэн /Rob Cohen
В ролях: Вин Дизель /Vin Diesel/, Пол Уокер /Paul Walker/, Мишель Родригез /Michelle Rodriguez/, Джордана Брюстер /Jordana Brewster/, Рик Юни /Rick Yune/, Чад Линдберг /Chad Lindberg
Описание фильма:
Его зовут Брайан, и он - фанатик турбин и нитроускорителей. Его цель - быть принятым в автобанду легендарного Доминика Торетто, чемпиона опасных и незаконных уличных гонок. Но это лишь часть правды... Брайан также полицейский, имеющий задание войти в доверие к Торетто, подозреваемому в причастности к дерзким грабежам трейлеров, совершенным прямо "с колес". Но чем больше доверяет нахальному новичку харизматичный Доминик, тем больше проникается герой идеалами "ангелов дорог". И тем меньше ему хочется выполнять свою миссию...- -Дата мировой премьеры: 18 июня 2001
Дата российской премьеры: 18 октября 2001
Дата выхода DVD релиза: 10 марта 2009, «Юниверсал Пикчерс Рус»
Дата выхода Blu-Ray релиза: 4 августа 2009, «Юниверсал Пикчерс Рус»
Продолжительность: 01:46:00
Перевод: Профессиональный многоголосый, закадровый
Субтитры: Русские (R5, Joker, Forced) русские (комментарии), английские
Вид субтитров: Вшитые отключаемые
Качество: BDRip
Видео: H.264, 1056x448 (2,35:1), 23,976 кадр/сек, 2153 Кбит/сек, 0.190 bit/pixel
Аудио#1: 48 kHz, AC3 Dolby Digital, 3/2 (L,C,R,l,r) + LFE ch, ~384.00 kbps avg | русский
Аудио#2: 48 kHz, AC3 Dolby Digital, 3/2 (L,C,R,l,r) + LFE ch, ~384.00 kbps avg | английский-

MI

Код:
General
Unique ID                                : 219126521716705651397068548509458215592 (0xA4DA3BA4784EE6F392C8DB62CC17B2A8)
Complete name                            : C:\Users\Сергей\Downloads\Forsazh.Pentalogy\Forsazh.2001.P.BDRip.x264.potroks.mkv
Format                                   : Matroska
Format version                           : Version 2
File size                                : 2.18 GiB
Duration                                 : 1h 46mn
Overall bit rate                         : 2 923 Kbps
Movie name                               : -=POTROKS=-
Encoded date                             : UTC 2012-04-03 15:27:58
Writing application                      : mkvmerge v5.2.1 ('A Far Off Place') built on Feb  6 2012 10:08:15
Writing library                          : libebml v1.2.3 + libmatroska v1.3.0
Video
ID                                       : 1
Format                                   : AVC
Format/Info                              : Advanced Video Codec
Format profile                           : [url=mailto:[email protected]][email protected][/url]
Format settings, CABAC                   : Yes
Format settings, ReFrames                : 11 frames
Codec ID                                 : V_MPEG4/ISO/AVC
Duration                                 : 1h 46mn
Bit rate                                 : 2 153 Kbps
Width                                    : 1 056 pixels
Height                                   : 448 pixels
Display aspect ratio                     : 2.35:1
Frame rate mode                          : Variable
Frame rate                               : 23.976 fps
Color space                              : YUV
Chroma subsampling                       : 4:2:0
Bit depth                                : 8 bits
Scan type                                : Progressive
Bits/(Pixel*Frame)                       : 0.190
Stream size                              : 1.57 GiB (72%)
Title                                    : 1. Forsazh.2001.P.BDRip.x264.potroks
Writing library                          : x264 core 116 r2019M 9cc407d
Encoding settings                        : cabac=1 / ref=12 / deblock=1:-2:-1 / analyse=0x3:0x133 / me=umh / subme=9 / psy=1 / psy_rd=1.00:0.00 / mixed_ref=1 / me_range=40 / chroma_me=1 / trellis=1 / 8x8dct=1 / cqm=0 / deadzone=21,11 / fast_pskip=0 / chroma_qp_offset=-2 / threads=8 / sliced_threads=0 / nr=0 / decimate=1 / interlaced=0 / bluray_compat=0 / constrained_intra=0 / bframes=8 / b_pyramid=1 / b_adapt=2 / b_bias=0 / direct=3 / weightb=1 / open_gop=0 / weightp=2 / keyint=250 / keyint_min=23 / scenecut=45 / intra_refresh=0 / rc_lookahead=100 / rc=2pass / mbtree=1 / bitrate=2153 / ratetol=1.0 / qcomp=0.60 / qpmin=10 / qpmax=51 / qpstep=4 / cplxblur=20.0 / qblur=0.7 / ip_ratio=1.37 / aq=1:1.20
Language                                 : English
Default                                  : Yes
Forced                                   : No
Audio #1
ID                                       : 2
Format                                   : AC-3
Format/Info                              : Audio Coding 3
Mode extension                           : CM (complete main)
Codec ID                                 : A_AC3
Duration                                 : 1h 46mn
Bit rate mode                            : Constant
Bit rate                                 : 384 Kbps
Channel(s)                               : 6 channels
Channel positions                        : Front: L C R, Side: L R, LFE
Sampling rate                            : 48.0 KHz
Bit depth                                : 16 bits
Compression mode                         : Lossy
Stream size                              : 293 MiB (13%)
Title                                    : MVO [AC3, 5.1 ch., 384 kbps]
Language                                 : Russian
Default                                  : Yes
Forced                                   : Yes
Audio #2
ID                                       : 3
Format                                   : AC-3
Format/Info                              : Audio Coding 3
Mode extension                           : CM (complete main)
Codec ID                                 : A_AC3
Duration                                 : 1h 46mn
Bit rate mode                            : Constant
Bit rate                                 : 384 Kbps
Channel(s)                               : 6 channels
Channel positions                        : Front: L C R, Side: L R, LFE
Sampling rate                            : 48.0 KHz
Bit depth                                : 16 bits
Compression mode                         : Lossy
Stream size                              : 293 MiB (13%)
Title                                    : Original AC3, 5.1 ch., 384 kbps
Language                                 : English
Default                                  : No
Forced                                   : No
Text #1
ID                                       : 4
Format                                   : UTF-8
Codec ID                                 : S_TEXT/UTF8
Codec ID/Info                            : UTF-8 Plain Text
Language                                 : English
Default                                  : No
Forced                                   : No
Text #2
ID                                       : 5
Format                                   : UTF-8
Codec ID                                 : S_TEXT/UTF8
Codec ID/Info                            : UTF-8 Plain Text
Title                                    : Комментарии
Language                                 : Russian
Default                                  : No
Forced                                   : No
Text #3
ID                                       : 6
Format                                   : UTF-8
Codec ID                                 : S_TEXT/UTF8
Codec ID/Info                            : UTF-8 Plain Text
Title                                    : Forced
Language                                 : Russian
Default                                  : Yes
Forced                                   : Yes
Text #4
ID                                       : 7
Format                                   : UTF-8
Codec ID                                 : S_TEXT/UTF8
Codec ID/Info                            : UTF-8 Plain Text
Title                                    : Joker
Language                                 : Russian
Default                                  : No
Forced                                   : No
Text #5
ID                                       : 8
Format                                   : UTF-8
Codec ID                                 : S_TEXT/UTF8
Codec ID/Info                            : UTF-8 Plain Text
Title                                    : R5
Language                                 : Russian
Default                                  : No
Forced                                   : No
-Скриншоты:
         
-- Двойной форсаж / 2 Fast 2 Furious (2003) - Название: Двойной форсаж
Оригинальное название: 2 Fast 2 Furious
Год выхода: 2003
Жанр: Боевик Детектив Драма Триллер
Режиссер: Джон Синглтон /John Singleton
В ролях: Пол Уокер /Paul Walker/, Тайрес /Tyrese/, Ева Мендес /Eva Mendes/, Коль Хаузер /Cole Hauser/, Лудакрис /Ludacris/, Том Барри /Thom Barry
Описание фильма:
Бывший полицейский Брайан О'Коннер вместе с напарником Романом Пиарсом собираются перевезти крупную сумму "грязных" денег известного мафиози Картера Верона в качестве его подручных. Но на самом деле эта работа является только прикрытием для Брайана, который вместе с тайным агентом Моникой Клемент должны уличить изворотливого преступника...- -Дата мировой премьеры: 3 июня 2003
Дата российской премьеры: 21 июля 2003
Дата выхода DVD релиза: 10 марта 2009, «Юниверсал Пикчерс Рус»
Дата выхода Blu-Ray релиза: 4 августа 2009, «Юниверсал Пикчерс Рус»
Продолжительность: 01:46:50
Перевод: Дублированный
Субтитры: Русские (Full, Radegast, Forced) русские (комментарии), английские
Вид субтитров: Вшитые отключаемые
Качество: BDRip
Видео: H.264, 1056x448 (2,35:1), 23,976 кадр/сек, 2132 Кбит/сек, 0.188 bit/pixel
Аудио#1: 48 kHz, AC3 Dolby Digital, 3/2 (L,C,R,l,r) + LFE ch, ~384.00 kbps avg | русский
Аудио#2: 48 kHz, AC3 Dolby Digital, 3/2 (L,C,R,l,r) + LFE ch, ~384.00 kbps avg | английский-

MI

Код:
General
Unique ID                                : 189857725390419915598866014522964615521 (0x8ED54491D5C40FA7992856EBB81AA161)
Complete name                            : C:\Users\Сергей\Downloads\Forsazh.Pentalogy\Dvojnoj.Forsazh.2003.D.BDRip.x264.potroks.mkv
Format                                   : Matroska
Format version                           : Version 2
File size                                : 2.18 GiB
Duration                                 : 1h 47mn
Overall bit rate                         : 2 901 Kbps
Movie name                               : -=POTROKS=-
Encoded date                             : UTC 2012-04-08 11:32:53
Writing application                      : mkvmerge v5.5.0 ('Healer') built on Apr  6 2012 21:43:24
Writing library                          : libebml v1.2.3 + libmatroska v1.3.0
Video
ID                                       : 1
Format                                   : AVC
Format/Info                              : Advanced Video Codec
Format profile                           : [url=mailto:[email protected]][email protected][/url]
Format settings, CABAC                   : Yes
Format settings, ReFrames                : 9 frames
Codec ID                                 : V_MPEG4/ISO/AVC
Duration                                 : 1h 47mn
Bit rate                                 : 2 132 Kbps
Width                                    : 1 056 pixels
Height                                   : 448 pixels
Display aspect ratio                     : 2.35:1
Original display aspect ratio            : 2.35:1
Frame rate mode                          : Variable
Frame rate                               : 23.976 fps
Color space                              : YUV
Chroma subsampling                       : 4:2:0
Bit depth                                : 8 bits
Scan type                                : Progressive
Bits/(Pixel*Frame)                       : 0.188
Stream size                              : 1.56 GiB (72%)
Title                                    : 2.Dvojnoj.Forsazh.2003.D.BDRip.x264.potroks
Writing library                          : x264 core 116 r2019M 9cc407d
Encoding settings                        : cabac=1 / ref=10 / deblock=1:-2:-1 / analyse=0x3:0x133 / me=umh / subme=9 / psy=1 / psy_rd=1.00:0.00 / mixed_ref=1 / me_range=40 / chroma_me=1 / trellis=1 / 8x8dct=1 / cqm=0 / deadzone=21,11 / fast_pskip=0 / chroma_qp_offset=-2 / threads=8 / sliced_threads=0 / nr=0 / decimate=1 / interlaced=0 / bluray_compat=0 / constrained_intra=0 / bframes=8 / b_pyramid=1 / b_adapt=2 / b_bias=0 / direct=3 / weightb=1 / open_gop=0 / weightp=2 / keyint=250 / keyint_min=23 / scenecut=45 / intra_refresh=0 / rc_lookahead=100 / rc=2pass / mbtree=1 / bitrate=2132 / ratetol=1.0 / qcomp=0.60 / qpmin=10 / qpmax=51 / qpstep=4 / cplxblur=20.0 / qblur=0.7 / ip_ratio=1.37 / aq=1:1.20
Language                                 : English
Default                                  : Yes
Forced                                   : No
Audio #1
ID                                       : 2
Format                                   : AC-3
Format/Info                              : Audio Coding 3
Mode extension                           : CM (complete main)
Codec ID                                 : A_AC3
Duration                                 : 1h 47mn
Bit rate mode                            : Constant
Bit rate                                 : 384 Kbps
Channel(s)                               : 6 channels
Channel positions                        : Front: L C R, Side: L R, LFE
Sampling rate                            : 48.0 KHz
Bit depth                                : 16 bits
Compression mode                         : Lossy
Stream size                              : 296 MiB (13%)
Title                                    : Dub AC3, 5.1 ch., 384 kbps
Language                                 : Russian
Default                                  : Yes
Forced                                   : No
Audio #2
ID                                       : 3
Format                                   : AC-3
Format/Info                              : Audio Coding 3
Mode extension                           : CM (complete main)
Codec ID                                 : A_AC3
Duration                                 : 1h 47mn
Bit rate mode                            : Constant
Bit rate                                 : 384 Kbps
Channel(s)                               : 6 channels
Channel positions                        : Front: L C R, Side: L R, LFE
Sampling rate                            : 48.0 KHz
Bit depth                                : 16 bits
Compression mode                         : Lossy
Stream size                              : 296 MiB (13%)
Title                                    : Original AC3, 5.1 ch., 384 kbps
Language                                 : English
Default                                  : No
Forced                                   : No
Text #1
ID                                       : 4
Format                                   : UTF-8
Codec ID                                 : S_TEXT/UTF8
Codec ID/Info                            : UTF-8 Plain Text
Language                                 : English
Default                                  : No
Forced                                   : No
Text #2
ID                                       : 5
Format                                   : UTF-8
Codec ID                                 : S_TEXT/UTF8
Codec ID/Info                            : UTF-8 Plain Text
Title                                    : Комментарии
Language                                 : Russian
Default                                  : No
Forced                                   : No
Text #3
ID                                       : 6
Format                                   : UTF-8
Codec ID                                 : S_TEXT/UTF8
Codec ID/Info                            : UTF-8 Plain Text
Title                                    : Forced
Language                                 : Russian
Default                                  : Yes
Forced                                   : Yes
Text #4
ID                                       : 7
Format                                   : UTF-8
Codec ID                                 : S_TEXT/UTF8
Codec ID/Info                            : UTF-8 Plain Text
Title                                    : Radegast
Language                                 : Russian
Default                                  : No
Forced                                   : No
Text #5
ID                                       : 8
Format                                   : UTF-8
Codec ID                                 : S_TEXT/UTF8
Codec ID/Info                            : UTF-8 Plain Text
Language                                 : Russian
Default                                  : No
Forced                                   : No
-Скриншоты:
         
-- Тройной форсаж: Токийский дрифт / Fast and the Furious, The: Tokyo Drift (2006) - Название: Тройной форсаж: Токийский дрифт
Оригинальное название: Fast and the Furious, The: Tokyo Drift
Год выхода: 2006
Жанр: Боевик Детектив Драма Триллер
Режиссер: Джастин Лин /Justin Lin
В ролях: Лукас Блэк /Lucas Black/, Брэндан Брэндэл /Brandon Brendel/, Зэкери Тай Брайан /Zachery Ty Bryan/, Дэниел Буко /Daniel Booko/, Лэвид В. Томас /David V. Thomas/, Амбер Стивенс /Amber Stevens
Описание фильма:
Шон Босуэлл всегда был изгоем. Его единственной страстью были незаконные уличные гонки. Чтобы не загреметь в тюрьму, Шон отправляется жить к своему дяде-военному, арендующему квартирку на задворках Токио. Но в стране, породившей немало отчаянных гонщиков, Шон обнаруживает, что стрит-рейсинг перерос в новую, смертельно опасную забаву, дрифт-рейсинг: гонки на безумных скоростях по невероятным трассам. Проиграв в первом же раунде `Королю Дрифтинга`, связанного с Якудза, Шон должен погасить свой долг, окунувшись в смертельно опасный мир нелегальных гонок Токио, где на кону стоят жизнь и смерть.- -Дата мировой премьеры: 4 июня 2006
Дата российской премьеры: 29 июня 2006
Дата выхода DVD релиза: 25 сентября 2008, «Мьюзик-Трейд»
Дата выхода Blu-Ray релиза: 4 августа 2009, «Юниверсал Пикчерс Рус»
Продолжительность: 01:44:14
Перевод: Дублированный
Субтитры: Русские (Full, Forced) русские (комментарии), английские
Вид субтитров: Вшитые отключаемые
Качество: BDRip
Видео: H.264, 1056x448 (2,35:1), 23,976 кадр/сек, 2226 Кбит/сек, 0.196 bit/pixel
Аудио#1: 48 kHz, AC3 Dolby Digital, 3/2 (L,C,R,l,r) + LFE ch, ~384.00 kbps avg | русский
Аудио#2: 48 kHz, AC3 Dolby Digital, 3/2 (L,C,R,l,r) + LFE ch, ~384.00 kbps avg | английский-

MI

Код:
General
Unique ID                                : 192449017959551385637803167721187470929 (0x90C85528437256DFB1619D1BADE46E51)
Complete name                            : C:\Users\Сергей\Downloads\Forsazh.Pentalogy\Trojnoj.Forsazh.2006.D.BDRip.x264.potroks.mkv
Format                                   : Matroska
Format version                           : Version 2
File size                                : 2.19 GiB
Duration                                 : 1h 47mn
Overall bit rate                         : 2 913 Kbps
Movie name                               : -=POTROKS=-
Encoded date                             : UTC 2012-04-11 04:39:29
Writing application                      : mkvmerge v5.5.0 ('Healer') built on Apr  6 2012 21:43:24
Writing library                          : libebml v1.2.3 + libmatroska v1.3.0
Video
ID                                       : 1
Format                                   : AVC
Format/Info                              : Advanced Video Codec
Format profile                           : [url=mailto:[email protected]][email protected][/url]
Format settings, CABAC                   : Yes
Format settings, ReFrames                : 6 frames
Codec ID                                 : V_MPEG4/ISO/AVC
Duration                                 : 1h 47mn
Bit rate                                 : 2 087 Kbps
Nominal bit rate                         : 2 226 Kbps
Width                                    : 1 056 pixels
Height                                   : 448 pixels
Display aspect ratio                     : 2.35:1
Frame rate mode                          : Variable
Frame rate                               : 23.976 fps
Color space                              : YUV
Chroma subsampling                       : 4:2:0
Bit depth                                : 8 bits
Scan type                                : Progressive
Bits/(Pixel*Frame)                       : 0.184
Stream size                              : 1.57 GiB (72%)
Title                                    : 3.Trojnoj.Forsazh.2006.D.BDRip.x264.potroks
Writing library                          : x264 core 116 r2019M 9cc407d
Encoding settings                        : cabac=1 / ref=7 / deblock=1:-2:-1 / analyse=0x3:0x133 / me=umh / subme=9 / psy=1 / psy_rd=1.00:0.00 / mixed_ref=1 / me_range=40 / chroma_me=1 / trellis=1 / 8x8dct=1 / cqm=0 / deadzone=21,11 / fast_pskip=0 / chroma_qp_offset=-2 / threads=8 / sliced_threads=0 / nr=0 / decimate=1 / interlaced=0 / bluray_compat=0 / constrained_intra=0 / bframes=8 / b_pyramid=1 / b_adapt=2 / b_bias=0 / direct=3 / weightb=1 / open_gop=0 / weightp=2 / keyint=250 / keyint_min=23 / scenecut=45 / intra_refresh=0 / rc_lookahead=100 / rc=2pass / mbtree=1 / bitrate=2226 / ratetol=1.0 / qcomp=0.60 / qpmin=10 / qpmax=51 / qpstep=4 / cplxblur=20.0 / qblur=0.7 / ip_ratio=1.37 / aq=1:1.20
Language                                 : English
Default                                  : Yes
Forced                                   : No
Audio #1
ID                                       : 2
Format                                   : AC-3
Format/Info                              : Audio Coding 3
Mode extension                           : CM (complete main)
Codec ID                                 : A_AC3
Duration                                 : 1h 47mn
Bit rate mode                            : Constant
Bit rate                                 : 384 Kbps
Channel(s)                               : 6 channels
Channel positions                        : Front: L C R, Side: L R, LFE
Sampling rate                            : 48.0 KHz
Bit depth                                : 16 bits
Compression mode                         : Lossy
Stream size                              : 296 MiB (13%)
Title                                    : Dub AC3, 5.1 ch., 384 kbps
Language                                 : Russian
Default                                  : Yes
Forced                                   : Yes
Audio #2
ID                                       : 3
Format                                   : AC-3
Format/Info                              : Audio Coding 3
Mode extension                           : CM (complete main)
Codec ID                                 : A_AC3
Duration                                 : 1h 47mn
Bit rate mode                            : Constant
Bit rate                                 : 384 Kbps
Channel(s)                               : 6 channels
Channel positions                        : Front: L C R, Side: L R, LFE
Sampling rate                            : 48.0 KHz
Bit depth                                : 16 bits
Compression mode                         : Lossy
Stream size                              : 296 MiB (13%)
Title                                    : Original AC3, 5.1 ch., 384 kbps
Language                                 : English
Default                                  : No
Forced                                   : No
Text #1
ID                                       : 4
Format                                   : UTF-8
Codec ID                                 : S_TEXT/UTF8
Codec ID/Info                            : UTF-8 Plain Text
Language                                 : English
Default                                  : No
Forced                                   : No
Text #2
ID                                       : 5
Format                                   : UTF-8
Codec ID                                 : S_TEXT/UTF8
Codec ID/Info                            : UTF-8 Plain Text
Title                                    : Комментарии
Language                                 : Russian
Default                                  : No
Forced                                   : No
Text #3
ID                                       : 6
Format                                   : UTF-8
Codec ID                                 : S_TEXT/UTF8
Codec ID/Info                            : UTF-8 Plain Text
Title                                    : Forced
Language                                 : Russian
Default                                  : Yes
Forced                                   : Yes
Text #4
ID                                       : 7
Format                                   : UTF-8
Codec ID                                 : S_TEXT/UTF8
Codec ID/Info                            : UTF-8 Plain Text
Title                                    : Radegast
Language                                 : Russian
Default                                  : No
Forced                                   : No
Text #5
ID                                       : 8
Format                                   : UTF-8
Codec ID                                 : S_TEXT/UTF8
Codec ID/Info                            : UTF-8 Plain Text
Language                                 : Russian
Default                                  : No
Forced                                   : No
-Скриншоты:
         
-- Форсаж 4 / Fast and the Furious (2009) - Название: Тройной форсаж 4
Оригинальное название: Fast and the Furious
Год выхода: 2009
Жанр: Боевик Детектив Драма Триллер
Режиссер: Джастин Лин /Justin Lin
В ролях: Вин Дизель /Vin Diesel/, Пол Уокер /Paul Walker/, Джордана Брюстер /Jordana Brewster/, Мишель Родригес /Michelle Rodriguez/, Джон Ортиз /John Ortiz/, Лас Алонсо /Laz Alonso
Описание фильма:
Когда кривая дорожка заставляет скрывающегося от правосудия Дома Торетто вернуться в Лос-Анджелес, вражда с агентом Брайаном О’Коннером вспыхивает с новой силой. Но у парочки обнаруживается общий противник, и Дому с Брайаном приходится заключить перемирие в надежде одержать над ним победу. Грабя конвои, роя подкопы и пересекая границы, они приходят к идеальной форме отмщения — педали газа, вдавленной до упора...-
Дата мировой премьеры: 12 марта 2009
Дата российской премьеры: 9 апреля 2009
Дата выхода DVD релиза: 5 мая 2009, «Юниверсал Пикчерс Рус»
Дата выхода Blu-Ray релиза: 1 сентября 2009, «Юниверсал Пикчерс Рус»
Продолжительность: 01:46:45
Перевод: Дублированный
Субтитры: Русские (2 вида, Forced), английские
Вид субтитров: Вшитые отключаемые
Качество: BDRip
Видео: H.264, 1072x448 (2,40:1), 23,976 кадр/сек, 2155 Кбит/сек, 0.187 bit/pixel
Аудио#1: 48 kHz, AC3 Dolby Digital, 3/2 (L,C,R,l,r) + LFE ch, ~384.00 kbps avg | русский
Аудио#2: 48 kHz, AC3 Dolby Digital, 3/2 (L,C,R,l,r) + LFE ch, ~384.00 kbps avg | английский-

MI

Код:
General
Unique ID                                : 214844760231265304822279761112349767147 (0xA1A198809BC265039AF22DCAB5AB75EB)
Complete name                            : C:\Users\Сергей\Downloads\Forsazh.Pentalogy\Forsazh.4.2009.D.BDRip.x264.potroks.mkv
Format                                   : Matroska
Format version                           : Version 2
File size                                : 2.18 GiB
Duration                                 : 1h 46mn
Overall bit rate                         : 2 925 Kbps
Movie name                               : -=POTROKS=-
Encoded date                             : UTC 2012-04-11 04:48:24
Writing application                      : mkvmerge v5.5.0 ('Healer') built on Apr  6 2012 21:43:24
Writing library                          : libebml v1.2.3 + libmatroska v1.3.0
Video
ID                                       : 1
Format                                   : AVC
Format/Info                              : Advanced Video Codec
Format profile                           : [url=mailto:[email protected]][email protected][/url]
Format settings, CABAC                   : Yes
Format settings, ReFrames                : 11 frames
Codec ID                                 : V_MPEG4/ISO/AVC
Duration                                 : 1h 46mn
Bit rate                                 : 2 155 Kbps
Width                                    : 1 072 pixels
Height                                   : 448 pixels
Display aspect ratio                     : 2.40:1
Original display aspect ratio            : 2.40:1
Frame rate mode                          : Variable
Frame rate                               : 23.976 fps
Color space                              : YUV
Chroma subsampling                       : 4:2:0
Bit depth                                : 8 bits
Scan type                                : Progressive
Bits/(Pixel*Frame)                       : 0.187
Stream size                              : 1.56 GiB (72%)
Title                                    : Forsazh.4.2009.D.BDRip.x264.potroks
Writing library                          : x264 core 116 r2019M 9cc407d
Encoding settings                        : cabac=1 / ref=12 / deblock=1:-2:-2 / analyse=0x3:0x133 / me=umh / subme=9 / psy=1 / psy_rd=1.00:0.00 / mixed_ref=1 / me_range=40 / chroma_me=1 / trellis=1 / 8x8dct=1 / cqm=0 / deadzone=21,11 / fast_pskip=0 / chroma_qp_offset=-2 / threads=8 / sliced_threads=0 / nr=0 / decimate=1 / interlaced=0 / bluray_compat=0 / constrained_intra=0 / bframes=8 / b_pyramid=1 / b_adapt=2 / b_bias=0 / direct=3 / weightb=1 / open_gop=0 / weightp=2 / keyint=250 / keyint_min=23 / scenecut=45 / intra_refresh=0 / rc_lookahead=100 / rc=2pass / mbtree=1 / bitrate=2155 / ratetol=1.0 / qcomp=0.60 / qpmin=10 / qpmax=51 / qpstep=4 / cplxblur=20.0 / qblur=0.7 / ip_ratio=1.37 / aq=1:1.20
Language                                 : English
Default                                  : Yes
Forced                                   : No
Audio #1
ID                                       : 2
Format                                   : AC-3
Format/Info                              : Audio Coding 3
Mode extension                           : CM (complete main)
Codec ID                                 : A_AC3
Duration                                 : 1h 46mn
Bit rate mode                            : Constant
Bit rate                                 : 384 Kbps
Channel(s)                               : 6 channels
Channel positions                        : Front: L C R, Side: L R, LFE
Sampling rate                            : 48.0 KHz
Bit depth                                : 16 bits
Compression mode                         : Lossy
Stream size                              : 293 MiB (13%)
Title                                    : Dub AC3, 5.1 ch., 384 kbps
Language                                 : Russian
Default                                  : Yes
Forced                                   : Yes
Audio #2
ID                                       : 3
Format                                   : AC-3
Format/Info                              : Audio Coding 3
Mode extension                           : CM (complete main)
Codec ID                                 : A_AC3
Duration                                 : 1h 46mn
Bit rate mode                            : Constant
Bit rate                                 : 384 Kbps
Channel(s)                               : 6 channels
Channel positions                        : Front: L C R, Side: L R, LFE
Sampling rate                            : 48.0 KHz
Bit depth                                : 16 bits
Compression mode                         : Lossy
Stream size                              : 293 MiB (13%)
Title                                    : Original AC3, 5.1 ch., 384 kbps
Language                                 : English
Default                                  : No
Forced                                   : No
Text #1
ID                                       : 4
Format                                   : UTF-8
Codec ID                                 : S_TEXT/UTF8
Codec ID/Info                            : UTF-8 Plain Text
Language                                 : English
Default                                  : No
Forced                                   : No
Text #2
ID                                       : 5
Format                                   : UTF-8
Codec ID                                 : S_TEXT/UTF8
Codec ID/Info                            : UTF-8 Plain Text
Title                                    : forced
Language                                 : Russian
Default                                  : Yes
Forced                                   : Yes
Text #3
ID                                       : 6
Format                                   : UTF-8
Codec ID                                 : S_TEXT/UTF8
Codec ID/Info                            : UTF-8 Plain Text
Title                                    : full
Language                                 : Russian
Default                                  : No
Forced                                   : No
Text #4
ID                                       : 7
Format                                   : UTF-8
Codec ID                                 : S_TEXT/UTF8
Codec ID/Info                            : UTF-8 Plain Text
Title                                    : full 2
Language                                 : Russian
Default                                  : No
Forced                                   : No
-Скриншоты:
         
-- Форсаж 5 / Fast Five (2011) - Название: Тройной форсаж 5
Оригинальное название: Fast Five
Год выхода: 2011
Жанр: Боевик Детектив Драма Триллер
Режиссер: Джастин Лин / Justin Lin
В ролях: Вин Дизель / Vin Diesel, Пол Уокер / Paul Walker, Джордана Брюстер / Jordana Brewster, Тайриз Гибсон / Tyrese Gibson, Лудакрис / Ludacris, Эльза Патаки / Elsa Pataky, Галь Гадот / Gal Gadot, Тего Калдерон / Tego Calderon, Дон Омар / Don Omar, Мэтт Шульце / Matt Schulze
Описание фильма:
Бывший полицейский Брайан О`Коннер вместе с бывалым лихачом Домиником Торетто совсем немного увлеклись жизнью вне закона. После того, как Брайан и Миа Торетто освободили Доминика, они не рискуют долго задерживаться на одном месте, так как являются желанной целью порядком недовольных копов.- -Дата мировой премьеры: 15 апреля 2011
Дата российской премьеры: 28 апреля 2011, «UPI»
Дата выхода DVD релиза: 25 августа 2011, «Двадцатый Век Фокс СНГ»
Дата выхода Blu-Ray релиза: 25 августа 2011, «Двадцатый Век Фокс СНГ»
Продолжительность: 02:10:21
Перевод: Дублированный
Субтитры: Русские (Forced, Goblin), английские (SDH)
Вид субтитров: Вшитые отключаемые
Качество: BDRip
Видео: H.264, 1056x448 (2,35:1), 23,976 кадр/сек, 1938 Кбит/сек, 0.171 bit/pixel
Аудио#1: 48 kHz, AC3 Dolby Digital, 3/2 (L,C,R,l,r) + LFE ch, ~384.00 kbps avg | русский
Аудио#2: 48 kHz, AC3 Dolby Digital, 2/0 (L,R) ch, ~192 kbps | английский-

MI

Код:
General
Unique ID                                : 247472668972293687704304848254638673246 (0xBA2D809A9B6A89D1A15563453F82CD5E)
Complete name                            : C:\Users\Сергей\Downloads\Forsazh.Pentalogy\Forsazh.5.2011.D.BDRip.x264.potroks.mkv
Format                                   : Matroska
Format version                           : Version 2
File size                                : 2.29 GiB
Duration                                 : 2h 10mn
Overall bit rate                         : 2 516 Kbps
Movie name                               : -=POTROKS=-
Encoded date                             : UTC 2012-04-11 04:52:37
Writing application                      : mkvmerge v5.5.0 ('Healer') built on Apr  6 2012 21:43:24
Writing library                          : libebml v1.2.3 + libmatroska v1.3.0
Video
ID                                       : 1
Format                                   : AVC
Format/Info                              : Advanced Video Codec
Format profile                           : [url=mailto:[email protected]][email protected][/url]
Format settings, CABAC                   : Yes
Format settings, ReFrames                : 11 frames
Codec ID                                 : V_MPEG4/ISO/AVC
Duration                                 : 2h 10mn
Bit rate                                 : 1 938 Kbps
Width                                    : 1 056 pixels
Height                                   : 448 pixels
Display aspect ratio                     : 2.35:1
Frame rate mode                          : Variable
Frame rate                               : 23.976 fps
Color space                              : YUV
Chroma subsampling                       : 4:2:0
Bit depth                                : 8 bits
Scan type                                : Progressive
Bits/(Pixel*Frame)                       : 0.171
Stream size                              : 1.72 GiB (75%)
Title                                    : Forsazh.5.2011.D.BDRip.x264.potroks
Writing library                          : x264 core 116 r2019M 9cc407d
Encoding settings                        : cabac=1 / ref=12 / deblock=1:-2:-2 / analyse=0x3:0x133 / me=umh / subme=9 / psy=1 / psy_rd=1.00:0.00 / mixed_ref=1 / me_range=40 / chroma_me=1 / trellis=1 / 8x8dct=1 / cqm=0 / deadzone=21,11 / fast_pskip=0 / chroma_qp_offset=-2 / threads=8 / sliced_threads=0 / nr=0 / decimate=1 / interlaced=0 / bluray_compat=0 / constrained_intra=0 / bframes=8 / b_pyramid=1 / b_adapt=2 / b_bias=0 / direct=3 / weightb=1 / open_gop=0 / weightp=2 / keyint=250 / keyint_min=23 / scenecut=45 / intra_refresh=0 / rc_lookahead=100 / rc=2pass / mbtree=1 / bitrate=1938 / ratetol=1.0 / qcomp=0.60 / qpmin=10 / qpmax=51 / qpstep=4 / cplxblur=20.0 / qblur=0.7 / ip_ratio=1.37 / aq=1:1.20
Language                                 : English
Default                                  : Yes
Forced                                   : No
Audio #1
ID                                       : 2
Format                                   : AC-3
Format/Info                              : Audio Coding 3
Mode extension                           : CM (complete main)
Codec ID                                 : A_AC3
Duration                                 : 2h 10mn
Bit rate mode                            : Constant
Bit rate                                 : 384 Kbps
Channel(s)                               : 6 channels
Channel positions                        : Front: L C R, Side: L R, LFE
Sampling rate                            : 48.0 KHz
Bit depth                                : 16 bits
Compression mode                         : Lossy
Stream size                              : 358 MiB (15%)
Title                                    : Dub  AC3, 5.1 ch., 384 kbps
Language                                 : Russian
Default                                  : Yes
Forced                                   : Yes
Audio #2
ID                                       : 3
Format                                   : AC-3
Format/Info                              : Audio Coding 3
Mode extension                           : CM (complete main)
Codec ID                                 : A_AC3
Duration                                 : 2h 10mn
Bit rate mode                            : Constant
Bit rate                                 : 192 Kbps
Channel(s)                               : 2 channels
Channel positions                        : Front: L R
Sampling rate                            : 48.0 KHz
Bit depth                                : 16 bits
Compression mode                         : Lossy
Stream size                              : 179 MiB (8%)
Title                                    : Original AC3, 5.1 ch., 384 kbps
Language                                 : English
Default                                  : No
Forced                                   : No
Text #1
ID                                       : 4
Format                                   : UTF-8
Codec ID                                 : S_TEXT/UTF8
Codec ID/Info                            : UTF-8 Plain Text
Title                                    : SDH
Language                                 : English
Default                                  : No
Forced                                   : No
Text #2
ID                                       : 5
Format                                   : UTF-8
Codec ID                                 : S_TEXT/UTF8
Codec ID/Info                            : UTF-8 Plain Text
Title                                    : forced
Language                                 : Russian
Default                                  : Yes
Forced                                   : Yes
Text #3
ID                                       : 6
Format                                   : UTF-8
Codec ID                                 : S_TEXT/UTF8
Codec ID/Info                            : UTF-8 Plain Text
Title                                    : Goblin
Language                                 : Russian
Default                                  : No
Forced                                   : No
-Скриншоты:
         

_________________
Вне форума [Профиль] [ЛС]
Показать сообщения:    
Ответить на тему

Текущее время: Сегодня 22:56

Часовой пояс: GMT + 3



Вы не можете начинать темы
Вы не можете отвечать на сообщения
Вы не можете редактировать свои сообщения
Вы не можете удалять свои сообщения
Вы не можете голосовать в опросах
Вы не можете прикреплять файлы к сообщениям
Вы не можете скачивать файлы