Today is a free download without charge Download

Ветер (Роберт Саакянц) [1988, Рисованный мультфильм, WEBRip]

Reply to topic
 
Author
Message

Omen ®

Longevity: 7 years 11 months

Posts: 181087

Торрент-статистика

Post 02-Dec-2013 18:48

[Quote]

Ветер
Страна: CCCР
Жанр: Рисованный мультфильм
Продолжительность: 00:18:19
Год выпуска: 1988
Русские субтитры: нет
Режиссёр: Роберт Саакянц
Описание: Дежурный военной базы становится свидетелем странных событий. Радиация образовавшаяся в результате ядерной войны с поверхности земли начинает проникать в бункер.Мир сузился до ракетного полигона, видного из окна командного пункта, откуда нет выхода. Для военного вахтёра не прекращается аттракцион "проверка документов входящих и выходящих". Те и другие становятся всё причудливей и причудливей, а снаружи внутрь настойчиво просится ветер, очень странный ветер...
Доп. информация: Выпущено:«Арменфильм»
Очень редкий сюрреалистический мультфильм “Ветер” классика армянской анимации Роберта Саакянца ("Ух ты, говорящая рыба", "Ишь ты, масленица"). Один из самых ярких и необычных мультфильмов времён перестройки. Мультфильм исключительно для взрослых. Тема - ядерная война и последствия радиации. Место действия - бункер, где управляют советскими ядерными боеголовками.
Качество: WEBRip
Формат: AVI
Видео: 640x480 (1.33:1), 25 fps, XviD MPEG-4 ~2297 kbps avg, 0.30 bit/pixel
Аудио: 48 kHz, AC3 Dolby Digital, 2/0 (L,R) ch, ~192.00 kbps avg
Субтитры: нет

Подробные технические данные

Format : AVIFormat/Info : Audio Video InterleaveFile size : 328 MiBDuration : 18mn 19sOverall bit rate : 2 500 KbpsWriting application : VirtualDubModRus 1.5.10.2 (build 2542/release)Copyright : Rutracker.orgComment : WEBRip by dvdss
VideoID : 0Format : MPEG-4 VisualFormat profile : Advanced [email protected] settings, BVOP : 2Format settings, QPel : NoFormat settings, GMC : No warppointsFormat settings, Matrix : CustomCodec ID : XVIDCodec ID/Hint : XviDDuration : 18mn 19sBit rate : 2 298 KbpsWidth : 640 pixelsHeight : 480 pixelsDisplay aspect ratio : 5:4Original display aspect ratio : 4:3Frame rate : 25.000 fpsColor space : YUVChroma subsampling : 4:2:0Bit depth : 8 bitsScan type : ProgressiveCompression mode : LossyBits/(Pixel*Frame) : 0.299Stream size : 301 MiB (92%)Writing library : XviD 65
AudioID : 1Format : AC-3Format/Info : Audio Coding 3Mode extension : CM (complete main)Format settings, Endianness : BigCodec ID : 2000Duration : 18mn 19sBit rate mode : ConstantBit rate : 192 KbpsChannel(s) : 2 channelsChannel positions : Front: L RSampling rate : 48.0 KHzBit depth : 16 bitsCompression mode : LossyStream size : 25.2 MiB (8%)Alignment : Aligned on interleavesInterleave, duration : 40 ms (1.00 video frame)Interleave, preload duration : 512 ms

Скриншоты

Other forum [Profile] [PM]
Display posts from previous:    
Reply to topic

The time now is: Today 10:58

All times are GMT + 3 Hours



You cannot post new topics in this forum
You cannot reply to topics in this forum
You cannot edit your posts in this forum
You cannot delete your posts in this forum
You cannot vote in polls in this forum
You cannot attach files in this forum
You cannot download files in this forum