Today is a free download without charge Download

Птицы над городом (Сергей Никоненко)[1974.,Детский] TVRip

Reply to topic
 
Author
Message

sashau ®

Gender:

Longevity: 9 years 6 months

Posts: 3497

Торрент-статистика

Post 02-Dec-2013 17:01

[Quote]

Птицы над городом - Год выпуска: 1974
Жанр: Детский
Описание фильма:
Андрюша и его товарищи по пятому классу в груде утильсырья отыскали плохо переплетенные машинописные страницы с надписью «Атака». Ребята восторженно зачитываются этим собранием фронтовых рассказов. Автор их Букин, оказывается, живет неподалеку, в соседнем квартале.
Режиссер: Сергей Никоненко
Сценарий: Сергей Никоненко, Семен Фрейлих
Оператор: Вячеслав Шумский
Композитор: Эдуард Артемьев
Производство: Киностудия им. Горького
Актеры: Михаил Глузский, Игорь Меркулов, Ирина Харитон, Сергей Образов, Светлана Орлова, Андрей Вишнев, Раиса Куркина, Лидия Федосеева-Шукшина, Сергей Никоненко, Н. Трисветова, Герман Полосков, Мария Шукшина, Ольга Шукшина и др.
Продолжительность: 01:10:54
Качество видео: TVRip

Видеокодек: Xvid
Битрейт видео: ~1242 kbps
Размер кадра: 688 x 384
Аудиокодек: MP3, 2 ch
Битрейт аудио: 128 kbps

MediaInfo

General
Complete name : Ptitsi.Nad.Gorodom.1974.TVRip.avi
Format : AVI
Format/Info : Audio Video Interleave
File size : 700 MiB
Duration : 1h 10mn
Overall bit rate : 1 380 Kbps
Writing application : VirtualDubMod 1.5.10.2 (build 2540/release)
Writing library : VirtualDub build 32842/release
Video
ID : 0
Format : MPEG-4 Visual
Format profile : Advanced [email protected]
Format settings, BVOP : 1
Format settings, QPel : No
Format settings, GMC : No warppoints
Format settings, Matrix : Default (H.263)
Muxing mode : Packed bitstream
Codec ID : XVID
Codec ID/Hint : XviD
Duration : 1h 10mn
Bit rate : 1 242 Kbps
Width : 688 pixels
Height : 384 pixels
Display aspect ratio : 16:9
Frame rate : 25.000 fps
Color space : YUV
Chroma subsampling : 4:2:0
Bit depth : 8 bits
Scan type : Progressive
Compression mode : Lossy
Bits/(Pixel*Frame) : 0.188
Stream size : 630 MiB (90%)
Writing library : XviD 1.2.1 (UTC 2008-12-04)
Audio
ID : 1
Format : MPEG Audio
Format version : Version 1
Format profile : Layer 3
Mode : Joint stereo
Mode extension : MS Stereo
Codec ID : 55
Codec ID/Hint : MP3
Duration : 1h 10mn
Bit rate mode : Constant
Bit rate : 128 Kbps
Channel count : 2 channels
Sampling rate : 48.0 KHz
Compression mode : Lossy
Stream size : 64.9 MiB (9%)
Alignment : Split accross interleaves
Interleave, duration : 40 ms (1.00 video frame)
Interleave, preload duration : 500 ms
Скриншоты:          
         
Other forum [Profile] [PM]
Display posts from previous:    
Reply to topic

The time now is: Today 12:00

All times are GMT + 3 Hours



You cannot post new topics in this forum
You cannot reply to topics in this forum
You cannot edit your posts in this forum
You cannot delete your posts in this forum
You cannot vote in polls in this forum
You cannot attach files in this forum
You cannot download files in this forum