Today is a free download without charge Download

Лесное трио / KJFG / Log Jam (Алексей Алексеев / Alexey Alexeev) [2007-2008, короткометражный анимационный фильм, DVDRemux]

Reply to topic
 
Author
Message

Omen ®

Longevity: 7 years 11 months

Posts: 181087

Торрент-статистика

Post 02-Dec-2013 14:44

[Quote]

Лесное трио
Log Jam
Год выпуска: 2007-2008
Страна: Россия
Жанр: короткометражный анимационный фильм : animated short film
Продолжительность: 00:06:00
Перевод: не требуется
Субтитры: отсутствуют- Режиссёр: Алексей Алексеев : Alexey Alexeev- Описание: Медведь, заяц и волк - забавные лесные музыканты с канала Niсkelodeon.-Серии:
1. KJFG No.5 (00:01:59)
2. Луна / Moon (00:01:00)
3. Дождь / Rain (00:00:59)
4. Бревно / Log (00:00:59)
5. Змея / Snake (00:01:00)- Качество: DVDRemux
Формат: AVI
Видео кодек: MPEG2
Аудио кодек: AC3/PCM
Видео: 720x576, 25 fps, ~7380 kbps avg, 0.712 bit/pixel
Аудио: 48 kHz, AC3 Dolby Digital, 2/0 (L,R) ch, ~192 kbps

MediaInfo

Общее
Полное имя : C:\Лесное трио\Log Jam.2007-2008.DVDRemux\03. Rain.mpg
Формат : MPEG-PS
Размер файла : 55,1 Мбайт
Продолжительность : 59 с.
Режим общего битрейта : Переменный
Общий поток : 7725 Кбит/сек
Видео
Идентификатор : 224 (0xE0)
Формат : MPEG Video
Версия формата : Version 2
Профиль формата : [email protected]
Параметр BVOP формата : Да
Параметр матрицы формата : По умолчанию
Параметр GOP формата : M=3, N=12
Продолжительность : 59 с.
Вид битрейта : Переменный
Битрейт : 7380 Кбит/сек
Максимальный битрейт : 8000 Кбит/сек
Ширина : 720 пикселей
Высота : 576 пикселей
Соотношение сторон : 4:3
Частота кадров : 25,000 кадров/сек
Стандарт вещания : PAL
Цветовое пространство : YUV
Субдискретизация насыщенности : 4:2:0
Битовая глубина : 8 бит
Тип развёртки : Чересстрочная
Порядок развёртки : Нижнее поле первое
Метод сжатия : С потерями
Бит/(Пиксели*Кадры) : 0.712
Размер потока : 52,6 Мбайт (96%)
Аудио
Идентификатор : 189 (0xBD)-128 (0x80)
Формат : AC-3
Формат/Информация : Audio Coding 3
Расширение режима : CM (complete main)
Режим смешивания : DVD-Video
Продолжительность : 59 с.
Вид битрейта : Постоянный
Битрейт : 192 Кбит/сек
Каналы : 2 канала
Расположение каналов : Front: L R
Частота : 48,0 КГц
Битовая глубина : 16 бит
Метод сжатия : С потерями
Размер потока : 1,37 Мбайт (2%)
Other forum [Profile] [PM]
Display posts from previous:    
Reply to topic

The time now is: Today 15:58

All times are GMT + 3 Hours



You cannot post new topics in this forum
You cannot reply to topics in this forum
You cannot edit your posts in this forum
You cannot delete your posts in this forum
You cannot vote in polls in this forum
You cannot attach files in this forum
You cannot download files in this forum