Today is a free download without charge Download

Откройте, полиция! / Les Ripoux Трилогия (1984, 1990, 2003) DVDRip [H.264] [Hi10P]

Reply to topic
 
Author
Message

UndegraundMen ®

Longevity: 8 years 8 months

Posts: 25145

Торрент-статистика

Post 01-Dec-2013 23:00

[Quote]

Откройте, полиция! / Les Ripoux Трилогия (1984, 1990, 2003) DVDRip [H.264] [Hi10P] - Страна: ФранцияГод выпуска: 1984, 1990, 2003Жанр: Комедия, КриминалПродолжительность: 01:42:29, 01:43:25, 01:40:46Перевод: Профессиональный (дублированный), Профессиональный (многоголосый, закадровый)Режиссер: Клод ЗидиАктеры: Филипп Нуаре, Тьерри Лермит, Режин, Грэйс ДеКапитани, Жюльен Гийомар, Клод Броссе, Альбер Симоно, Анри Атталь, Абу Бакар, Пьер Батон, Лин Рено, Ги Маршан, Жан-Пьер Кастальди, Мишель Омон, Жан-Клод Бриали, Жан Бенгиги, Кристиан Буйетт, Лоран Дойч, Хлоя Флипо, Жан-Люк Бидо, Бернадетт Лафон, Жан-Франсуа Балмер, Лоренс Бокколини, Рейнальдо Вонг, Хин Хин Чэн

Откройте, полиция! / Les Ripoux (1984)

Откройте, полиция! / Les Ripoux (1984) DVDRip [H.264] [Hi10P] - Год выпуска: 1984
Страна: Франция
Жанр: Комедия, Криминал
Продолжительность: 01:42:29
Перевод: Профессиональный (дублированный), Профессиональный (многоголосый, закадровый)x2
Оригинальная аудиодорожка: Французская
Субтитры: нет
Режиссер: Клод Зиди
В ролях: Филипп Нуаре, Тьерри Лермит, Режин, Грэйс ДеКапитани, Жюльен Гийомар, Клод Броссе, Альбер Симоно, Анри Атталь, Абу Бакар, Пьер Батон
Описание: Опытный полицейский-пройдоха (Нуаре) обучает хитростям мошенничества своего юного напарника-идеалиста (Лермит). Напарник так входит в раж, что затмевает своего насквозь коррумпированного наставника. Восхитительный юмор и блистательная игра актеров снискали славу фильму сначала во Франции, а затем в СССР (прокатное название "Откройте, полиция!), США и других странах. Премии "Сезар" за лучший фильм и режиссуру. (Иванов М.)

Качество: DVDRip
Формат: MKV
Видео: MPEG-4 AVC/H.264, 672x568(954x568), 25,000fps, 1547 Кbps, 0.162bit/pixel
Аудио 1: DUB Russian, AC3, 2ch, 48 kHz, 192 kbps, (Дубляж)
Аудио 2: MVO Russian, AC3, 6ch, 48 kHz, 448 kbps, (Многоголосый - CP Digital)
Аудио 3: MVO Russian, AC3, 2ch, 48 kHz, 192 kbps, (Многоголосый - ОРТ)
Аудио 4: Francais, AC3, 6ch, 48 kHz, 448 kbps, (Оригинал)

MediaInfo

Общее
Формат : Matroska
Версия формата : Version 4 / Version 2
Размер файла : 2,06 Гбайт
Продолжительность : 1 ч. 42 м.
Общий поток : 2884 Кбит/сек
Название фильма : Откройте, полиция! / Les Ripoux (1984) DVDRip-AVC (Sinteros)
Программа кодирования : mkvmerge v6.5.0 ('Isn't she lovely') built on Oct 20 2013 12:50:05
Библиотека кодирования : libebml v1.3.0 + libmatroska v1.4.1
Attachment : Yes
Видео
Идентификатор : 1
Формат : AVC
Формат/Информация : Advanced Video Codec
Профиль формата : High [url=mailto:[email protected]][email protected][/url]
Параметр CABAC формата : Да
Параметр ReFrames формата : 11 кадров
Идентификатор кодека : V_MPEG4/ISO/AVC
Продолжительность : 1 ч. 42 м.
Битрейт : 1547 Кбит/сек
Ширина : 672 пикселя
Высота : 568 пикселей
Соотношение сторон : 1,680
Соотношение сторон в оригинале : 1,681
Режим частоты кадров : Постоянный
Частота кадров : 25,000 кадров/сек
Цветовое пространство : YUV
Субдискретизация насыщенности : 4:2:0
Битовая глубина : 10 бит
Тип развёртки : Прогрессивная
Бит/(Пиксели*Кадры) : 0.162
Размер потока : 1,11 Гбайт (54%)
Заголовок : MPEG-4 AVC/H.264, 672x568(954x568), 25,000fps, 1547 Кbps, 0.162bit/pixel
Библиотека кодирования : x264 core 133 r2334 a3ac64b
Настройки программы : cabac=1 / ref=11 / deblock=1:-1:-1 / analyse=0x3:0x133 / me=tesa / subme=10 / psy=1 / psy_rd=1.00:0.15 / mixed_ref=1 / me_range=24 / chroma_me=1 / trellis=2 / 8x8dct=1 / cqm=0 / deadzone=21,11 / fast_pskip=1 / chroma_qp_offset=-3 / threads=12 / lookahead_threads=1 / sliced_threads=0 / nr=0 / decimate=1 / interlaced=0 / bluray_compat=0 / constrained_intra=0 / bframes=6 / b_pyramid=2 / b_adapt=2 / b_bias=0 / direct=3 / weightb=1 / open_gop=0 / weightp=2 / keyint=250 / keyint_min=25 / scenecut=40 / intra_refresh=0 / rc_lookahead=60 / rc=crf / mbtree=1 / crf=18.0 / qcomp=0.60 / qpmin=0 / qpmax=81 / qpstep=4 / ip_ratio=1.40 / aq=1:1.00
Язык : English
Default : Да
Forced : Нет
Аудио #1
Идентификатор : 2
Формат : AC-3
Формат/Информация : Audio Coding 3
Расширение режима : CM (complete main)
Параметр Endianness формата : Big
Идентификатор кодека : A_AC3
Продолжительность : 1 ч. 42 м.
Вид битрейта : Постоянный
Битрейт : 192 Кбит/сек
Каналы : 2 канала
Расположение каналов : Front: L R
Частота : 48,0 КГц
Битовая глубина : 16 бит
Метод сжатия : С потерями
Размер потока : 141 Мбайт (7%)
Заголовок : DUB Russian, AC3, 2ch, 48 kHz, 192 kbps, (Дубляж)
Язык : Russian
Default : Да
Forced : Нет
Аудио #2
Идентификатор : 3
Формат : AC-3
Формат/Информация : Audio Coding 3
Расширение режима : CM (complete main)
Параметр Endianness формата : Big
Идентификатор кодека : A_AC3
Продолжительность : 1 ч. 42 м.
Вид битрейта : Постоянный
Битрейт : 448 Кбит/сек
Каналы : 6 каналов
Расположение каналов : Front: L C R, Side: L R, LFE
Частота : 48,0 КГц
Битовая глубина : 16 бит
Метод сжатия : С потерями
Размер потока : 328 Мбайт (16%)
Заголовок : MVO Russian, AC3, 6ch, 48 kHz, 448 kbps, (Многоголосый - CP Digital)
Язык : Russian
Default : Нет
Forced : Нет
Аудио #3
Идентификатор : 4
Формат : AC-3
Формат/Информация : Audio Coding 3
Расширение режима : CM (complete main)
Параметр Endianness формата : Big
Идентификатор кодека : A_AC3
Продолжительность : 1 ч. 42 м.
Вид битрейта : Постоянный
Битрейт : 192 Кбит/сек
Каналы : 2 канала
Расположение каналов : Front: L R
Частота : 48,0 КГц
Битовая глубина : 16 бит
Метод сжатия : С потерями
Размер потока : 141 Мбайт (7%)
Заголовок : MVO Russian, AC3, 2ch, 48 kHz, 192 kbps, (Многоголосый - ОРТ)
Язык : Russian
Default : Нет
Forced : Нет
Аудио #4
Идентификатор : 5
Формат : AC-3
Формат/Информация : Audio Coding 3
Расширение режима : CM (complete main)
Параметр Endianness формата : Big
Идентификатор кодека : A_AC3
Продолжительность : 1 ч. 42 м.
Вид битрейта : Постоянный
Битрейт : 448 Кбит/сек
Каналы : 6 каналов
Расположение каналов : Front: L C R, Side: L R, LFE
Частота : 48,0 КГц
Битовая глубина : 16 бит
Метод сжатия : С потерями
Размер потока : 328 Мбайт (16%)
Заголовок : Francais, AC3, 6ch, 48 kHz, 448 kbps, (Оригинал)
Язык : French
Default : Нет
Forced : Нет
Скриншоты:
         
         

Откройте, полиция! 2 / Ripoux contre Ripoux (1990)

Откройте, полиция! 2 / Ripoux contre Ripoux (1990) DVDRip [H.264] [Hi10P] - Год выпуска: 1990
Страна: Франция
Жанр: Комедия, Криминал
Продолжительность: 01:43:25
Перевод: Профессиональный (Дублированный), Профессиональный (многоголосый закадровый)x2
Оригинальная аудиодорожка: Французская
Субтитры: нет
Режиссер: Клод Зиди
В ролях: Филипп Нуаре, Тьерри Лермит, Грэйс де Капитани, Лин Рено, Ги Маршан, Жан-Пьер Кастальди, Мишель Омон, Жан-Клод Бриали, Жан Бенгиги, Кристиан Буйетт
Описание: Продажный и его неподкупный напарник попались на пустяке, и их выгнали из полиции, после чего им пришлось уехать на ферму к старому другу Нуаре. Пришедшая же им на смену пара негодяев поставила вымогательство на широкую ногу. С таким размахом, что все мелкие жулики, смеявшиеся над старостью и юностью наших героев, против которых дружно давали показания, просто взвыли. Взвыли и послали делегацию к отверженным бедолагам, забавляющимся мошенничеством на скачках. Они умоляли их вернуться и спасти от новых полицейских, по форме "работы" больше напоминающих беспредельных рэкетиров. И они вернулись...

Качество: DVDRip
Формат: MKV
Видео: MPEG-4 AVC/H.264, 656x576(936x576), 25,000fps, 1161 Кbps, 0.123bit/pixel
Аудио 1: DUB Russian, AC3, 2ch, 48 kHz, 192 kbps, (Дубляж)
Аудио 2: MVO Russian, AC3, 6ch, 48 kHz, 448 kbps, (Многоголосый - CP Digital)
Аудио 3: MVO Russian, AC3, 2ch, 48 kHz, 192 kbps, (Многоголосый - ОРТ)
Аудио 4: Francais, AC3, 6ch, 48 kHz, 448 kbps, (Оригинал)

MediaInfo

Общее
Формат : Matroska
Версия формата : Version 4 / Version 2
Размер файла : 1,75 Гбайт
Продолжительность : 1 ч. 40 м.
Общий поток : 2491 Кбит/сек
Название фильма : Откройте, полиция! 2 / Ripoux contre Ripoux (1990) DVDRip-AVC (Sinteros)
Программа кодирования : mkvmerge v6.5.0 ('Isn't she lovely') built on Oct 20 2013 12:50:05
Библиотека кодирования : libebml v1.3.0 + libmatroska v1.4.1
Attachment : Yes
Видео
Идентификатор : 1
Формат : AVC
Формат/Информация : Advanced Video Codec
Профиль формата : High [url=mailto:[email protected]][email protected][/url]
Параметр CABAC формата : Да
Параметр ReFrames формата : 11 кадров
Идентификатор кодека : V_MPEG4/ISO/AVC
Продолжительность : 1 ч. 40 м.
Битрейт : 1161 Кбит/сек
Ширина : 656 пикселей
Высота : 576 пикселей
Соотношение сторон : 16:10
Режим частоты кадров : Постоянный
Частота кадров : 25,000 кадров/сек
Цветовое пространство : YUV
Субдискретизация насыщенности : 4:2:0
Битовая глубина : 10 бит
Тип развёртки : Прогрессивная
Бит/(Пиксели*Кадры) : 0.123
Размер потока : 836 Мбайт (47%)
Заголовок : MPEG-4 AVC/H.264, 656x576(936x576), 25,000fps, 1161 Кbps, 0.123bit/pixel
Библиотека кодирования : x264 core 133 r2334 a3ac64b
Настройки программы : cabac=1 / ref=11 / deblock=1:-1:-1 / analyse=0x3:0x133 / me=tesa / subme=10 / psy=1 / psy_rd=1.00:0.15 / mixed_ref=1 / me_range=24 / chroma_me=1 / trellis=2 / 8x8dct=1 / cqm=0 / deadzone=21,11 / fast_pskip=1 / chroma_qp_offset=-3 / threads=12 / lookahead_threads=1 / sliced_threads=0 / nr=0 / decimate=1 / interlaced=0 / bluray_compat=0 / constrained_intra=0 / bframes=6 / b_pyramid=2 / b_adapt=2 / b_bias=0 / direct=3 / weightb=1 / open_gop=0 / weightp=2 / keyint=250 / keyint_min=25 / scenecut=40 / intra_refresh=0 / rc_lookahead=60 / rc=crf / mbtree=1 / crf=20.0 / qcomp=0.60 / qpmin=0 / qpmax=81 / qpstep=4 / ip_ratio=1.40 / aq=1:1.00
Язык : English
Default : Да
Forced : Нет
Аудио #1
Идентификатор : 2
Формат : AC-3
Формат/Информация : Audio Coding 3
Расширение режима : CM (complete main)
Параметр Endianness формата : Big
Идентификатор кодека : A_AC3
Продолжительность : 1 ч. 40 м.
Вид битрейта : Постоянный
Битрейт : 192 Кбит/сек
Каналы : 2 канала
Расположение каналов : Front: L R
Частота : 48,0 КГц
Битовая глубина : 16 бит
Метод сжатия : С потерями
Размер потока : 138 Мбайт (8%)
Заголовок : DUB Russian, AC3, 2ch, 48 kHz, 192 kbps, (Дубляж)
Язык : Russian
Default : Да
Forced : Нет
Аудио #2
Идентификатор : 3
Формат : AC-3
Формат/Информация : Audio Coding 3
Расширение режима : CM (complete main)
Параметр Endianness формата : Big
Идентификатор кодека : A_AC3
Продолжительность : 1 ч. 40 м.
Вид битрейта : Постоянный
Битрейт : 448 Кбит/сек
Каналы : 6 каналов
Расположение каналов : Front: L C R, Side: L R, LFE
Частота : 48,0 КГц
Битовая глубина : 16 бит
Метод сжатия : С потерями
Размер потока : 322 Мбайт (18%)
Заголовок : MVO Russian, AC3, 6ch, 48 kHz, 448 kbps, (Многоголосый - CP Digital)
Язык : Russian
Default : Нет
Forced : Нет
Аудио #3
Идентификатор : 4
Формат : AC-3
Формат/Информация : Audio Coding 3
Расширение режима : CM (complete main)
Параметр Endianness формата : Big
Идентификатор кодека : A_AC3
Продолжительность : 1 ч. 40 м.
Вид битрейта : Постоянный
Битрейт : 192 Кбит/сек
Каналы : 2 канала
Расположение каналов : Front: L R
Частота : 48,0 КГц
Битовая глубина : 16 бит
Метод сжатия : С потерями
Размер потока : 138 Мбайт (8%)
Заголовок : MVO Russian, AC3, 2ch, 48 kHz, 192 kbps, (Многоголосый - ОРТ)
Язык : Russian
Default : Нет
Forced : Нет
Аудио #4
Идентификатор : 5
Формат : AC-3
Формат/Информация : Audio Coding 3
Расширение режима : CM (complete main)
Параметр Endianness формата : Big
Идентификатор кодека : A_AC3
Продолжительность : 1 ч. 40 м.
Вид битрейта : Постоянный
Битрейт : 448 Кбит/сек
Каналы : 6 каналов
Расположение каналов : Front: L C R, Side: L R, LFE
Частота : 48,0 КГц
Битовая глубина : 16 бит
Метод сжатия : С потерями
Размер потока : 322 Мбайт (18%)
Заголовок : Francais, AC3, 6ch, 48 kHz, 448 kbps, (Оригинал)
Язык : French
Default : Нет
Forced : Нет
Скриншоты:
         
         

Откройте, полиция! 3/ Ripoux 3 (2003)

Откройте, полиция! 3/ Ripoux 3 (2003) DVDRip [H.264] [Hi10P] - Год выпуска: 2003
Страна: Франция
Жанр: Комедия, Криминал
Продолжительность: 01:40:46
Перевод: Профессиональный (Дублированный)
Субтитры: нет
Режиссер: Клод Зиди
В ролях: Филип Нуаре, Тьерри Лермитт, Лоран Дойч, Хлоя Флипо, Жан-Люк Бидо, Бернадетт Лафон, Жан-Франсуа Балмер, Лоренс Бокколини, Рейнальдо Вонг, Хин Хин Чэн
Описание: Все хорошее когда-нибудь кончается. Кончились и деньги, которые приятели-полицейские скопили, "обыскивая" Мон-Мартр. В результате завзятый плейбой Франсуа Лебюш опять вернулся на работу в полицию, став образцовым детективом, над которым измывается начальник; а Рене Буарон - тот и вовсе вышел на пенсию, с головой уйдя в свое любимое занятие - игру на скачках. Однажды в результате невероятного стечения обстоятельств в руки Буарона попадает кругленькая сумма чужих денег. Правда, вскоре выясняется, что это касса китайской мафии, и теперь у Рене только один шанс избежать расправы - срочно умереть, конечно, понарошку. И вот у Буарона новая жизнь и новый паспорт. Но к несчастью, вместе с новыми документами незадачливый Рене приобрел еще и солидное криминальное прошлое рецидивиста со стажем...

Качество: DVDRip
Формат: MKV
Видео: MPEG-4 AVC/H.264, 720x544(1010x544), 25,000fps, 1581 Кbps, 0.161bit/pixel
Аудио 1: DUB Russian, AC3, 6ch, 48 kHz, 448 kbps, (Дубляж)
Аудио 2: Francais, AC3, 6ch, 48 kHz, 448 kbps, (Оригинал)

MediaInfo

Общее
Формат : Matroska
Версия формата : Version 4 / Version 2
Размер файла : 1,78 Гбайт
Продолжительность : 1 ч. 40 м.
Общий поток : 2528 Кбит/сек
Название фильма : Откройте, полиция! 3/ Ripoux 3 (1976) DVDRip-AVC (Sinteros)
Программа кодирования : mkvmerge v6.5.0 ('Isn't she lovely') built on Oct 20 2013 12:50:05
Библиотека кодирования : libebml v1.3.0 + libmatroska v1.4.1
Attachment : Yes
Видео
Идентификатор : 1
Формат : AVC
Формат/Информация : Advanced Video Codec
Профиль формата : High [url=mailto:[email protected]][email protected][/url]
Параметр CABAC формата : Да
Параметр ReFrames формата : 11 кадров
Идентификатор кодека : V_MPEG4/ISO/AVC
Продолжительность : 1 ч. 40 м.
Битрейт : 1581 Кбит/сек
Ширина : 720 пикселей
Высота : 544 пикселя
Соотношение сторон : 1,85:1
Соотношение сторон в оригинале : 1,85:1
Режим частоты кадров : Постоянный
Частота кадров : 25,000 кадров/сек
Цветовое пространство : YUV
Субдискретизация насыщенности : 4:2:0
Битовая глубина : 10 бит
Тип развёртки : Прогрессивная
Бит/(Пиксели*Кадры) : 0.161
Размер потока : 1,11 Гбайт (63%)
Заголовок : MPEG-4 AVC/H.264, 720x544(1010x544), 25,000fps, 1581 Кbps, 0.161bit/pixel
Библиотека кодирования : x264 core 133 r2334 a3ac64b
Настройки программы : cabac=1 / ref=11 / deblock=1:-1:-1 / analyse=0x3:0x133 / me=tesa / subme=10 / psy=1 / psy_rd=1.00:0.15 / mixed_ref=1 / me_range=24 / chroma_me=1 / trellis=2 / 8x8dct=1 / cqm=0 / deadzone=21,11 / fast_pskip=1 / chroma_qp_offset=-3 / threads=12 / lookahead_threads=1 / sliced_threads=0 / nr=0 / decimate=1 / interlaced=0 / bluray_compat=0 / constrained_intra=0 / bframes=6 / b_pyramid=2 / b_adapt=2 / b_bias=0 / direct=3 / weightb=1 / open_gop=0 / weightp=2 / keyint=250 / keyint_min=25 / scenecut=40 / intra_refresh=0 / rc_lookahead=60 / rc=crf / mbtree=1 / crf=19.0 / qcomp=0.60 / qpmin=0 / qpmax=81 / qpstep=4 / ip_ratio=1.40 / aq=1:1.00
Язык : English
Default : Да
Forced : Нет
Аудио #1
Идентификатор : 2
Формат : AC-3
Формат/Информация : Audio Coding 3
Расширение режима : CM (complete main)
Параметр Endianness формата : Big
Идентификатор кодека : A_AC3
Продолжительность : 1 ч. 40 м.
Вид битрейта : Постоянный
Битрейт : 448 Кбит/сек
Каналы : 6 каналов
Расположение каналов : Front: L C R, Side: L R, LFE
Частота : 48,0 КГц
Битовая глубина : 16 бит
Метод сжатия : С потерями
Задержка видео : 21 с.
Размер потока : 323 Мбайт (18%)
Заголовок : DUB Russian, AC3, 6ch, 48 kHz, 448 kbps, (Дубляж)
Язык : Russian
Default : Да
Forced : Нет
Аудио #2
Идентификатор : 3
Формат : AC-3
Формат/Информация : Audio Coding 3
Расширение режима : CM (complete main)
Параметр Endianness формата : Big
Идентификатор кодека : A_AC3
Продолжительность : 1 ч. 40 м.
Вид битрейта : Постоянный
Битрейт : 448 Кбит/сек
Каналы : 6 каналов
Расположение каналов : Front: L C R, Side: L R, LFE
Частота : 48,0 КГц
Битовая глубина : 16 бит
Метод сжатия : С потерями
Размер потока : 323 Мбайт (18%)
Заголовок : Francais, AC3, 6ch, 48 kHz, 448 kbps, (Оригинал)
Язык : French
Default : Нет
Forced : Нет
Скриншоты:
         
         
Примечание: Рип в High 10 Profile, в настоящее время не поддерживается большинством аппаратных проигрывателей, поэтому предназначен исключительно для воспроизведения на ПК. Для корректного воспроизведения может потребоваться обновление ПО.
Other forum [Profile] [PM]
Display posts from previous:    
Reply to topic

The time now is: Today 13:37

All times are GMT + 3 Hours



You cannot post new topics in this forum
You cannot reply to topics in this forum
You cannot edit your posts in this forum
You cannot delete your posts in this forum
You cannot vote in polls in this forum
You cannot attach files in this forum
You cannot download files in this forum