Today is a free download without charge Download

Мисс Конгениальность 2: Прекрасна и опасна / Miss Congeniality 2: Armed and Fabulous (Джон Паскуин) [2005 г., боевик, комедия, криминал,BDRip720p]

Reply to topic
 
Author
Message

Delia ®

Gender:

Longevity: 10 years

Posts: 1821

Торрент-статистика

Post 10-Nov-2011 19:04

[Quote]

Мисс Конгениальность 2: Прекрасна и опаснаMiss Congeniality 2: Armed and Fabulous Год выпуска: 2005
Страна: США, Австралия
Жанр: боевик, комедия, криминал,
Продолжительность: 01:55:20
Перевод: Профессиональный (полное дублирование)
Режиссер: Джон Паскуин
Продюссер: Сандра Буллок, Марк Лоуренс, Брюс Берман
Сценарий: Марк Лоуренс, Кэти Форд, Кэрин Лукас
В ролях: Сандра Буллок, Регина Кинг, Энрике Муркьяно, Уильям Шатнер, Эрни Хадсон, Дидрих Бэйдер, Хезер Бернс, Трит Уильямс, Эйбрахам Бенруби, Ник Оффермэн, Айлин Бреннан, Лесли Эрин Гроссмэн, Люсия Струс, Сьюзан Чуэнг, Джон ДиРеста, Одри Василевски
Описание: После того как агент ФБР Грейси Харт прославилась на всю страну, обезвредив бомбу на общенациональном конкурсе красоты, жизнь ее пошла наперекосяк. На романтических отношениях пришлось поставить крест, да и с работой не все гладко. Ну какой, скажите на милость, секретный агент из женщины, которую каждый знает в лицо?! Единственное, что Грейси теперь может себе позволить - это выступать в качестве "лица ФБР" на телевизионном ток-шоу. Какая гадость! Тем временем, неизвестные похищают в Лас-Вегасе победительницу прошлогоднего конкурса красоты Шерил. Грейси готова самолично заняться спасением подруги. Но руководство запрещает ей вмешиваться, привлекая к расследованию не кого-нибудь, а ворчунью Сэм. Впрочем, на мисс Конгениальность это не производит никакого впечатления - она никогда не бросает друзей в беде, и никакой запрет начальства ее не остановит!
Качество: BDRip720p
Формат: MKV
Видео кодек: H.264
Аудио кодек: AC3
Видео: English, 4658 Кбит/сек, 1280*528 (2,40:1), в 23,976 кадр/сек, AVC ([email protected])
Аудио: Russian, 448 Кбит/сек, 48,0 КГц, 16 бит, 6 канала(ов), AC-3
Аудио:English, 320 Кбит/сек, 48,0 КГц, 16 бит, 6 канала(ов), AC-3
Субтитры:Russian, English (VobSub)

MI:

Код:
Общее
Уникальный идентификатор         : 172832768920105388553103715689563711481 (0x82066168ACB8A8A388A5E9318C9867F9)
Полное имя                       : E:\торрент\Miss Congeniality 2(2005)BDRip720p.mkv
Формат                           : Matroska
Размер файла                     : 4,38 Гбайт
Продолжительность                : 1 ч. 55 м.
Общий поток                      : 5436 Кбит/сек
Дата кодирования                 : UTC 2011-10-19 03:24:06
Программа кодирования            : mkvmerge v5.0.1 ('Es ist Sommer') built on Oct  9 2011 11:55:43
Библиотека кодирования           : libebml v1.2.2 + libmatroska v1.3.0
Видео
Идентификатор                    : 1
Формат                           : AVC
Формат/Информация                : Advanced Video Codec
Профиль формата                  : [email protected]
Параметр CABAC формата           : Да
Параметр ReFrames формата        : 9 кадры
Идентификатор кодека             : V_MPEG4/ISO/AVC
Продолжительность                : 1 ч. 55 м.
Битрейт                          : 4658 Кбит/сек
Ширина                           : 1280 пикс.
Высота                           : 528 пикс.
Соотношение сторон               : 2,40:1
Частота кадров                   : 23,976 кадр/сек
Цветовое пространство            : YUV
Подвыборка цветности             : 4:2:0
Битовая глубина                  : 8 бит
Тип развёртки                    : Прогрессивная
Бит/(Пиксели*Кадры)              : 0.287
Размер потока                    : 3,67 Гбайт (84%)
Библиотека кодирования           : x264 core 118 r2085 8a62835
Настройки программы              : cabac=1 / ref=9 / deblock=1:-3:-3 / analyse=0x3:0x113 / me=esa / subme=10 / psy=1 / psy_rd=0.95:0.25 / mixed_ref=1 / me_range=32 / chroma_me=1 / trellis=2 / 8x8dct=1 / cqm=0 / deadzone=21,11 / fast_pskip=0 / chroma_qp_offset=-2 / threads=6 / sliced_threads=0 / nr=10 / decimate=0 / interlaced=0 / bluray_compat=0 / constrained_intra=0 / bframes=8 / b_pyramid=2 / b_adapt=2 / b_bias=0 / direct=1 / weightb=1 / open_gop=0 / weightp=2 / keyint=250 / keyint_min=23 / scenecut=40 / intra_refresh=0 / rc_lookahead=60 / rc=2pass / mbtree=1 / bitrate=4658 / ratetol=1.0 / qcomp=0.80 / qpmin=10 / qpmax=51 / qpstep=4 / cplxblur=20.0 / qblur=0.5 / ip_ratio=1.40 / aq=1:1.00
Язык                             : English
Аудио #1
Идентификатор                    : 2
Формат                           : AC-3
Формат/Информация                : Audio Coding 3
Расширение режима                : CM (complete main)
Идентификатор кодека             : A_AC3
Продолжительность                : 1 ч. 55 м.
Вид битрейта                     : Постоянный
Битрейт                          : 448 Кбит/сек
Канал(ы)                         : 6 канала(ов)
Расположение каналов             : Front: L C R, Side: L R, LFE
Частота                          : 48,0 КГц
Битовая глубина                  : 16 бит
Метод сжатия                     : С потерями
Задержка видео                   : 13 мс.
Размер потока                    : 370 Мбайт (8%)
Язык                             : Russian
Аудио #2
Идентификатор                    : 3
Формат                           : AC-3
Формат/Информация                : Audio Coding 3
Расширение режима                : CM (complete main)
Идентификатор кодека             : A_AC3
Продолжительность                : 1 ч. 55 м.
Вид битрейта                     : Постоянный
Битрейт                          : 320 Кбит/сек
Канал(ы)                         : 6 канала(ов)
Расположение каналов             : Front: L C R, Side: L R, LFE
Частота                          : 48,0 КГц
Битовая глубина                  : 16 бит
Метод сжатия                     : С потерями
Размер потока                    : 264 Мбайт (6%)
Язык                             : English
Текст #1
Идентификатор                    : 4
Формат                           : VobSub
Режим смешивания                 : zlib
Идентификатор кодека             : S_VOBSUB
Идентификатор кодека/Информация  : The same subtitle format used on DVDs
Язык                             : Russian
Текст #2
Идентификатор                    : 5
Формат                           : VobSub
Режим смешивания                 : zlib
Идентификатор кодека             : S_VOBSUB
Идентификатор кодека/Информация  : The same subtitle format used on DVDs
Язык                             : English
Меню
00:00:00.000                     : en:Chapter 01
00:05:00.000                     : en:Chapter 02
00:10:00.000                     : en:Chapter 03
00:15:00.000                     : en:Chapter 04
00:20:00.000                     : en:Chapter 05
00:25:00.000                     : en:Chapter 06
00:30:00.000                     : en:Chapter 07
00:35:00.000                     : en:Chapter 08
00:40:00.000                     : en:Chapter 09
00:45:00.000                     : en:Chapter 10
00:50:00.000                     : en:Chapter 11
00:55:00.000                     : en:Chapter 12
01:00:00.000                     : en:Chapter 13
01:05:00.000                     : en:Chapter 14
01:10:00.000                     : en:Chapter 15
01:15:00.000                     : en:Chapter 16
01:20:00.000                     : en:Chapter 17
01:25:00.000                     : en:Chapter 18
01:30:00.000                     : en:Chapter 19
01:35:00.000                     : en:Chapter 20
01:40:00.000                     : en:Chapter 21
01:45:00.000                     : en:Chapter 22
01:50:00.000                     : en:Chapter 23
01:55:00.000                     : en:Chapter 24

Скриншоты

     
     

_________________
Человек – это канат, натянутый между животным и сверхчеловеком, – канат над пропастью.
В человеке ценно то, что он мост, а не цель. Фридрих Ницше
Other forum [Profile] [PM]
Display posts from previous:    
Reply to topic

The time now is: Today 13:14

All times are GMT + 3 Hours



You cannot post new topics in this forum
You cannot reply to topics in this forum
You cannot edit your posts in this forum
You cannot delete your posts in this forum
You cannot vote in polls in this forum
You cannot attach files in this forum
You cannot download files in this forum