Today is a free download without charge Download

Проделки сорванца (Варис Брасла)[1985.,Детский, Комедия, Семейный] IPTVRip

Reply to topic
 
Author
Message

sashau ®

Gender:

Longevity: 9 years 6 months

Posts: 3497

Торрент-статистика

Post 01-Dec-2013 12:54

[Quote]

Проделки сорванца - Год выпуска: 1985
Жанр: Детский, Комедия, Семейный
Описание фильма:
Фильм снят по мотивам повести детской писательницы Астрид Линдгрен "Приключения Эмиля из Лённеберги" и рассказывает о веселых проделках шестилетнего проказника Эмиля.
Исходный материал "подчищен", восстановлена яркость и сочность цветов, корректированы пропорции кадра.
Режиссер: Варис Брасла
Актеры: Харрий Лиепиньш, Даце Эвера, Диана Занде, Улдис Думпис, Вия Артмане, Мадара Дишлере, Марис Зонненбергс-Замбергс, Рудольф Плепис, Эвальд Валтерс, Д.Купле, Ольга Круминя, Янис Зариньш, И.Адерманис
Продолжительность: 01:10:19
Качество видео: IPTVRip

Видеокодек: DivX 5
Битрейт видео: ~1200 Kbps
Размер кадра: 704 x 528
Аудиокодек: MP3, 2 ch
Битрейт аудио: 192 Kbps

MediaInfo

General
Complete name : Prodelki.Sorvantsa.1985.IPTVRip.avi
Format : AVI
Format/Info : Audio Video Interleave
File size : 705 MiB
Duration : 1h 10mn
Overall bit rate : 1 402 Kbps
Video
ID : 0
Format : MPEG-4 Visual
Format settings, BVOP : Yes
Format settings, QPel : No
Format settings, GMC : No warppoints
Format settings, Matrix : Default (H.263)
Codec ID : DX50
Codec ID/Hint : DivX 5
Duration : 1h 10mn
Bit rate : 1 200 Kbps
Width : 704 pixels
Height : 528 pixels
Display aspect ratio : 4:3
Frame rate : 25.000 fps
Color space : YUV
Chroma subsampling : 4:2:0
Bit depth : 8 bits
Scan type : Progressive
Compression mode : Lossy
Bits/(Pixel*Frame) : 0.129
Stream size : 604 MiB (86%)
Title : Video
Writing library : DivX 2682
Audio
ID : 1
Format : MPEG Audio
Format version : Version 1
Format profile : Layer 3
Mode : Joint stereo
Mode extension : MS Stereo
Codec ID : 55
Codec ID/Hint : MP3
Duration : 1h 10mn
Bit rate mode : Constant
Bit rate : 192 Kbps
Channel count : 2 channels
Sampling rate : 48.0 KHz
Compression mode : Lossy
Stream size : 96.6 MiB (14%)
Alignment : Split accross interleaves
Interleave, duration : 40 ms (1.00 video frame)
Interleave, preload duration : 500 ms
Title : Audio - en-US01
Скриншоты:
         
Other forum [Profile] [PM]
Display posts from previous:    
Reply to topic

The time now is: Today 17:02

All times are GMT + 3 Hours



You cannot post new topics in this forum
You cannot reply to topics in this forum
You cannot edit your posts in this forum
You cannot delete your posts in this forum
You cannot vote in polls in this forum
You cannot attach files in this forum
You cannot download files in this forum