Today is a free download without charge Download

Реаниматор / Re-Animator ( Стюарт Гордон)[1985.,Фантастика, Ужасы] BDRip

Reply to topic
 
Author
Message

sashau ®

Gender:

Longevity: 9 years 10 months

Posts: 3497

Торрент-статистика

Post 29-Nov-2013 17:05

[Quote]

Реаниматор / Re-Animator -«Герберт Вест имеет очень хорошую голову на плечах - и еще одну в блюде на столе!»- Год выпуска: 1985
Жанр: Фантастика, Ужасы
Описание фильма:
Мертвецов реанимирует с помощью таинственной сыворотки, полученной в результате немыслимых экспериментов, студент медицинского университета Герберт Вест. Сосед Веста по комнате Дэн помогает приятелю в его страшном деле.
Начинают они с кошки, потом добираются до трупов из университетского морга…
Режиссер: Стюарт Гордон
Актеры: Джеффри Комбс, Брюс Эбботт, Барбара Крэмптон, Дэвид Гэйл, Роберт Сэмпсон, Джерри Блэк, Кэролин Пёрди-Гордон, Питер Кент, Йен Патрик Уильямс
Продолжительность: 01:25:45
Качество видео: BDRip
Перевод: Профессиональный (двухголосый закадровый) П.Гланц и И.Королёва + Авторский (одноголосый закадровый) Ю.Живов + Профессиональный (многоголосый закадровый)R5 / внешняя + Авторский (одноголосый закадровый) А.Гаврилов / внешняя + Авторский (одноголосый закадровый) П.Карцев
Язык субтитров: Русский (R5, Dimidrol, Notabeonid), Английский
Вид субтитров: Отдельным файлом

Дата мировой премьеры: 18 октября 1985
Дата выхода DVD релиза: 16 апреля 2009
Видеокодек: Xvid
Битрейт видео: ~2085 kbps
Размер кадра: 720x400
Audio #1: 48 kHz, AC3 Dolby Digital, 3/2 (L,C,R,l,r) + LFE ch, ~448 kbps - Профессиональный (двухголосый закадровый) П.Гланц и И.Королёва
Audio #2: 48 kHz, AC3 Dolby Digital, 3/2 (L,C,R,l,r) + LFE ch, ~448 kbps - Авторский (одноголосый закадровый) Ю.Живов
Audio #3: 48 kHz, AC3 Dolby Digital, 6 ch, ~448.00 kbps avg - Оригинал (Английский)
Audio #4: 48 kHz, AC3 Dolby Digital, 6 ch, ~384.00 kbps avg - Профессиональный (многоголосый закадровый)R5 / внешняя
Audio #5: 48 kHz, AC3 Dolby Digital, 6 ch, ~448.00 kbps avg - Авторский (одноголосый закадровый) А.Гаврилов / внешняя
Audio #6: 48 kHz, AC3, 2 ch, ~192.00 kbps avg - Авторский (одноголосый закадровый) П.Карцев
&

MI

Общее
Полное имя : D:\Рипы\Re-Animator.1985.BDRip\Re-Animator.1985.BDRip.avi
Формат : AVI
Формат/Информация : Audio Video Interleave
Профиль формата : OpenDML
Размер файла : 2,07 Гбайт
Продолжительность : 1 ч. 25 м.
Общий поток : 3453 Кбит/сек
Название фильма : Re-Animator.1985.BDRip
Режиссёр : rip by maygli
Программа кодирования : VirtualDubModRus 1.5.10.2 (build 2542/release)
Правообладатель : ... (RG Rulya74)
Видео
Идентификатор : 0
Формат : MPEG-4 Visual
Профиль формата : Advanced [email protected]
Параметр BVOP формата : 1
Параметр QPel формата : Нет
Параметр GMC формата : Без точки перехода
Параметр матрицы формата : Выборочная
Идентификатор кодека : XVID
Идентификатор кодека/Подсказка : XviD
Продолжительность : 1 ч. 25 м.
Битрейт : 2085 Кбит/сек
Ширина : 720 пикселей
Высота : 400 пикселей
Соотношение сторон : 16:9
Частота кадров : 23,976 кадра/сек
Цветовое пространство : YUV
Субдискретизация насыщенности : 4:2:0
Битовая глубина : 8 бит
Тип развёртки : Прогрессивная
Метод сжатия : С потерями
Бит/(Пиксели*Кадры) : 0.302
Размер потока : 1,25 Гбайт (60%)
Библиотека кодирования : XviD 65
Аудио #1
Идентификатор : 1
Формат : AC-3
Формат/Информация : Audio Coding 3
Расширение режима : CM (complete main)
Параметр Endianness формата : Big
Идентификатор кодека : 2000
Продолжительность : 1 ч. 25 м.
Вид битрейта : Постоянный
Битрейт : 448 Кбит/сек
Каналы : 6 каналов
Расположение каналов : Front: L C R, Side: L R, LFE
Частота : 48,0 КГц
Битовая глубина : 16 бит
Метод сжатия : С потерями
Размер потока : 275 Мбайт (13%)
Выравнивание : Разделение по промежуткам
Продолжительность промежутка : 42 мс. (1,00 видеокадр)
Время предзагрузки промежутка : 500 мс.
Заголовок : Профессиональный (двухголосый закадровый) П.Гланц и И.Королёва
Аудио #2
Идентификатор : 2
Формат : AC-3
Формат/Информация : Audio Coding 3
Расширение режима : CM (complete main)
Параметр Endianness формата : Big
Идентификатор кодека : 2000
Продолжительность : 1 ч. 25 м.
Вид битрейта : Постоянный
Битрейт : 448 Кбит/сек
Каналы : 6 каналов
Расположение каналов : Front: L C R, Side: L R, LFE
Частота : 48,0 КГц
Битовая глубина : 16 бит
Метод сжатия : С потерями
Размер потока : 275 Мбайт (13%)
Выравнивание : Разделение по промежуткам
Продолжительность промежутка : 42 мс. (1,00 видеокадр)
Время предзагрузки промежутка : 500 мс.
Заголовок : Авторский (одноголосый закадровый) Ю.Живов
Аудио #3
Идентификатор : 3
Формат : AC-3
Формат/Информация : Audio Coding 3
Расширение режима : CM (complete main)
Параметр Endianness формата : Big
Идентификатор кодека : 2000
Продолжительность : 1 ч. 25 м.
Вид битрейта : Постоянный
Битрейт : 448 Кбит/сек
Каналы : 6 каналов
Расположение каналов : Front: L C R, Side: L R, LFE
Частота : 48,0 КГц
Битовая глубина : 16 бит
Метод сжатия : С потерями
Размер потока : 275 Мбайт (13%)
Выравнивание : Разделение по промежуткам
Продолжительность промежутка : 42 мс. (1,00 видеокадр)
Время предзагрузки промежутка : 500 мс.
Заголовок : Оригинал (Английский)
Общее
Полное имя : D:\Рипы\Re-Animator.1985.BDRip\Re-Animator.1985.BDRip.MVO.ac3
Формат : AC-3
Формат/Информация : Audio Coding 3
Размер файла : 236 Мбайт
Продолжительность : 1 ч. 25 м.
Режим общего битрейта : Постоянный
Общий поток : 384 Кбит/сек
Аудио
Формат : AC-3
Формат/Информация : Audio Coding 3
Расширение режима : CM (complete main)
Параметр Endianness формата : Big
Продолжительность : 1 ч. 25 м.
Вид битрейта : Постоянный
Битрейт : 384 Кбит/сек
Каналы : 6 каналов
Расположение каналов : Front: L C R, Side: L R, LFE
Частота : 48,0 КГц
Битовая глубина : 16 бит
Метод сжатия : С потерями
Размер потока : 236 Мбайт (100%)
Общее
Полное имя : D:\Рипы\Re-Animator.1985.BDRip\Re-Animator.1985.BDRip.Gavrilov.ac3
Формат : AC-3
Формат/Информация : Audio Coding 3
Размер файла : 275 Мбайт
Продолжительность : 1 ч. 25 м.
Режим общего битрейта : Постоянный
Общий поток : 448 Кбит/сек
Аудио
Формат : AC-3
Формат/Информация : Audio Coding 3
Расширение режима : CM (complete main)
Параметр Endianness формата : Big
Продолжительность : 1 ч. 25 м.
Вид битрейта : Постоянный
Битрейт : 448 Кбит/сек
Каналы : 6 каналов
Расположение каналов : Front: L C R, Side: L R, LFE
Частота : 48,0 КГц
Битовая глубина : 16 бит
Метод сжатия : С потерями
Размер потока : 275 Мбайт (100%)
Общее
Полное имя : D:\Рипы\Re-Animator.1985.BDRip\Re-Animator.1985.BDRip.Karcev.ac3
Формат : AC-3
Формат/Информация : Audio Coding 3
Размер файла : 118 Мбайт
Продолжительность : 1 ч. 25 м.
Режим общего битрейта : Постоянный
Общий поток : 192 Кбит/сек
Аудио
Формат : AC-3
Формат/Информация : Audio Coding 3
Расширение режима : CM (complete main)
Параметр Endianness формата : Big
Продолжительность : 1 ч. 25 м.
Вид битрейта : Постоянный
Битрейт : 192 Кбит/сек
Каналы : 2 канала
Расположение каналов : Front: L R
Частота : 48,0 КГц
Битовая глубина : 16 бит
Метод сжатия : С потерями
Размер потока : 118 Мбайт (100%)
Скриншоты:
           
Other forum [Profile] [PM]
Display posts from previous:    
Reply to topic

The time now is: Today 12:15

All times are GMT + 3 Hours



You cannot post new topics in this forum
You cannot reply to topics in this forum
You cannot edit your posts in this forum
You cannot delete your posts in this forum
You cannot vote in polls in this forum
You cannot attach files in this forum
You cannot download files in this forum