Today is a free download without charge Download

Белая стрела (Александр Бурцев) [2007, боевик, драма, криминал, DVDRip]

Reply to topic
 
Author
Message

DED ®

Gender:

Longevity: 7 years 1 month

Posts: 4226

Location: СССР

Торрент-статистика

Post 27-Nov-2013 17:29

[Quote]

--Белая стрела-- Год выпуска: 2007
Страна: Россия
Производство: Интра Фильм
Жанр: боевик, драма, криминал
Продолжительность: 01:35:46
Перевод: Не требуется-Режиссер: Александр Бурцев-В ролях: Сергей Маховиков, Владислав Юрчекевич, Алексей Шутов, Виталий Коваленко, Владимир Артёмов, Евгений Леонов-Гладышев, Александр Саюталин, Светлана Щедрина, Полина Воробьева, Сергей Мурзин, Анатолий Рудаков, Лариса Климова, Юрий Ковалёв, Владимир Атисков, Алексей Утеганов, Альберт Афонин...-Описание: Середина 1990-х годов. У десантника Николая Балакирева умирает мать. Он вынужден уйти со службы и вернуться в Санкт-Петербург к сестре, которая после смерти родителей осталась совсем одна. Старинный друг отца Николая, генерал Кашин, предлагает ему работу в Управлении по борьбе с организованной преступностью, которое он возглавляет. Вскоре сестру Николая убивает известный в городе бандит – Пеликан. Но благодаря большим деньгам и связям Пеликану удается избежать наказания...-- --Качество: DVDRip
Формат: AVI
Видео кодек: DivX
Аудио кодек АС3
Видео: 688x384 (1.79:1), 25.000 fps, DivX Codec 5.x, ~1779 kbps avg, 0.269 bit/pixel
Аудио: 48.0 kHz, AC3 Dolby Digital, 2/0 (L,R) ch, ~256.00 kbps avg
Субтитры: нет--

Media Info

Полное имя : F:\Belaja.strela.2007.DivX.DVDRip.BestVideo.avi
Формат : AVI
Формат/Информация : Audio Video Interleave
Размер файла : 1,37 Гбайт
Продолжительность : 1 ч. 35 м.
Общий поток : 2044 Кбит/сек
Программа кодирования : FairUse Wizard
Библиотека кодирования : The best and REALLY easy backup tool
Видео
Идентификатор : 0
Формат : MPEG-4 Visual
Параметр BVOP формата : 1
Параметр QPel формата : Нет
Параметр GMC формата : Без точки перехода
Параметр матрицы формата : Default (H.263)
Режим смешивания : Сжатый битовый поток
Идентификатор кодека : DX50
Идентификатор кодека/Подсказка : DivX 5
Продолжительность : 1 ч. 35 м.
Битрейт : 1779 Кбит/сек
Ширина : 688 пикселей
Высота : 384 пикселя
Соотношение сторон : 16:9
Частота кадров : 25,000 кадров/сек
Цветовое пространство : YUV
Субдискретизация насыщенности : 4:2:0
Битовая глубина : 8 бит
Тип развёртки : Прогрессивная
Метод сжатия : С потерями
Бит/(Пиксели*Кадры) : 0.269
Размер потока : 1,19 Гбайт (87%)
Библиотека кодирования : DivX 6.2.5 (UTC 2006-07)
Аудио
Идентификатор : 1
Формат : AC-3
Формат/Информация : Audio Coding 3
Расширение режима : CM (complete main)
Идентификатор кодека : 2000
Продолжительность : 1 ч. 35 м.
Вид битрейта : Постоянный
Битрейт : 256 Кбит/сек
Каналы : 2 канала
Расположение каналов : Front: L R
Частота : 48,0 КГц
Битовая глубина : 16 бит
Метод сжатия : С потерями
Размер потока : 175 Мбайт (13%)
Выравнивание : Разделение по промежуткам
Продолжительность промежутка : 40 мс. (1,00 видеокадр)
Время предзагрузки промежутка : 500 мс.

Скриншоты

         
-- --

_________________

==============================
IGNOSCITO SAEPE ALTERI, NUNQUAM TIBI
Other forum [Profile] [PM]
Display posts from previous:    
Reply to topic

The time now is: Today 23:02

All times are GMT + 3 Hours



You cannot post new topics in this forum
You cannot reply to topics in this forum
You cannot edit your posts in this forum
You cannot delete your posts in this forum
You cannot vote in polls in this forum
You cannot attach files in this forum
You cannot download files in this forum