Today is a free download without charge Download

Мультфильмы по мотивам стихотворений Габдуллы Тукая (Сергей Киатров)[2011.,Рисованная анимация, Детский, Сказка] DVD5

Reply to topic
 
Author
Message

sashau ®

Gender:

Longevity: 8 years 10 months

Posts: 3497

Торрент-статистика

Post 25-Nov-2013 20:13

[Quote]

Мультфильмы по мотивам стихотворений Габдуллы Тукая- Русское название: Мультфильмы по мотивам стихотворений Габдуллы Тукая
Год выпуска: 2011
Выпущено: Россия, Татармультфильм
Жанр: Рисованная анимация, Детский, Сказка
Язык: Русский, Татарский, Английский
Режиссер: Сергей Киатров
Описание фильма:
Сборник красочных, сделанных с любовью мультфильмов по мотивам стихотворений татарского народного поэта Габдуллы Тукая, для самых маленьких зрителей.
Продолжительность: 00:43:21
Качество видео: DVD5
Видео: MPEG 2, 720x576 (4:3), 25.000 fps, 9 500 Kbps (0.426 bit/pixel)
Аудио: AC-3, 48.0 KHz, 2 ch, 192 Kbps, CBR

МедиаИнфо:

Видео
Идентификатор : 224 (0xE0)
Формат : MPEG Video
Версия формата : Version 2
Профиль формата : [email protected]
Параметр BVOP формата : Да
Параметр матрицы формата : По умолчанию
Параметр GOP формата : M=3, N=12
Продолжительность : 2 м. 44 с.
Вид битрейта : Переменный
Битрейт : 4456 Кбит/сек
Максимальный битрейт : 9500 Кбит/сек
Ширина : 720 пикселей
Высота : 576 пикселей
Соотношение сторон : 4:3
Частота кадров : 25,000 кадров/сек
Стандарт вещания : PAL
Цветовое пространство : YUV
Субдискретизация насыщенности : 4:2:0
Битовая глубина : 8 бит
Тип развёртки : Прогрессивная
Метод сжатия : С потерями
Бит/(Пиксели*Кадры) : 0.430
Размер потока : 87,2 Мбайт (94%)
Аудио
Идентификатор : 189 (0xBD)-128 (0x80)
Формат : AC-3
Формат/Информация : Audio Coding 3
Расширение режима : CM (complete main)
Параметр Endianness формата : Big
Режим смешивания : DVD-Video
Продолжительность : 2 м. 44 с.
Вид битрейта : Постоянный
Битрейт : 192 Кбит/сек
Каналы : 2 канала
Расположение каналов : Front: L R
Частота : 48,0 КГц
Битовая глубина : 16 бит
Метод сжатия : С потерями
Задержка видео : -80 мс.
Размер потока : 3,76 Мбайт (4%)
Меню

Содержание:

01. Родной язык
02. Кошка - озорница
03. Луна и Солнце
04. После работы можно и поиграть
05. Ленивый пёс
06. Дождь и Солнце
07. Ребёнок и Бабочка
08. Мышь, попавшая в молоко
09. Белый Дед
10. Забавный ученик
11. Утро
12. Зимний вечер
13. Гали и Коза
14. Родная деревня

Меню DVD:

 
Скриншоты:
         
         
Other forum [Profile] [PM]
Similar theme
Forum Topic Author Torrent Replies Last Post
./templates/default/images/folder_dl.gif Комиксы, Графика, Wallpapers, Арт Харт К. - Как нарисовать все, что вы узнали о мультяшках [2001, PDF, RUS] Omen
1 | 0

0 | 729

1

2016-11-08 01:00
Omen Latest
./templates/default/images/folder_dl.gif Фильмы 2011-2020 Фиксики против кработов (Василий Бедошвили, Олег Ужинов, Иван Пшонкин) [2019 г., приключения, музыка, мультфильм, WEB-DLRip] kilmister777
1 | 0

0 | 660

3

2020-02-05 13:57
kilmister777 Latest
./templates/default/images/folder_dl.gif Live /PE/ Boot CD (DVD, USB) 2k10 Live v.7.30 (Мультизагрузочный диск) by conty9 / korsak7 [2020, Rus, 32bit/64bit] DED
2 | 0

0 | 993

0

2020-10-11 15:58
DED Latest
Display posts from previous:    
Reply to topic

The time now is: Today 09:58

All times are GMT + 3 Hours



You cannot post new topics in this forum
You cannot reply to topics in this forum
You cannot edit your posts in this forum
You cannot delete your posts in this forum
You cannot vote in polls in this forum
You cannot attach files in this forum
You cannot download files in this forum