Today is a free download without charge Download

Искатели приключений / Les Aventuriers (1967) HDDVDRemux [1080p]

Reply to topic
 
Author
Message

UndegraundMen ®

Longevity: 8 years 8 months

Posts: 25145

Торрент-статистика

Post 24-Nov-2013 23:11

[Quote]

Искатели приключений / Les Aventuriers (1967) HDDVDRemux- Год выпуска: 1967
Жанр: Приключения, Драма
Описание фильма:
Существует ли настоящая мужская дружба? Да, существует… И фильм "Искатели приключений" тому веское доказательство. У каждого из них своя мечта — Ролан изобретает эталонный автомобильный двигатель, Летиция делает железные поделки для выставки, Маню, лётчик и сорвиголова, надеется пролететь под Триумфальной аркой. Но в один прекрасный день они порывают с парижской жизнью, чтобы испытать себя в рискованных обстоятельствах и… отправляются на поиски сокровищ, затонувших у острова в Средиземном море. Однако радость романтического путешествия обернулась роковым столкновением с другими охотниками за приключениями…
Режиссер: Робер Энрико
Актеры: Ален Делон, Лино Вентура, Джоанна Шимкус, Серж Реджани, Поль Кроше, Ханс Майер, Ги Делорм, Тереза Квантен, Жан Дарье, Жан Троньон, Одиль Пуассон, Ирен Тунк, Валерий Инкижинов, Рауль Гилад, Жан Ландье, Мик Бессон-

Дата мировой премьеры:
12 апреля 1967-Продолжительность: 01:52:58
Качество видео: HD DVDRemux
Перевод: Дублированный, многоголосый закадровый
Контейнер: MKV
Видео: MPEG-4 AVC/H.264, 1920x1080, ~ 22500 kbps, 23.976 fps
Аудио 1: Русский AC3 2.0, 48 kHz, 192 kbps - Дубляж
Аудио 2: Русский AC3 5.1, 48 kHz, 448 kbps - Многоголосый закадровый
Аудио 3: Французский AC3 2.0, 48 kHz, 640 kbps

MediaInfo

Les.aventuriers.(1967).HDDVDRemux.mkv
Format : Matroska
Format version : Version 2
File size : 19.1 GiB
Duration : 1h 52mn
Overall bit rate mode : Variable
Overall bit rate : 24.2 Mbps
Movie name : Les aventuriers.1967.HDDVDRemux
Encoded date : UTC 2013-08-17 05:19:17
Writing application : mkvmerge v5.7.0 ('The Whirlwind') built on Jul 8 2012 20:08:51
Writing library : libebml v1.2.3 + libmatroska v1.3.0
Video
ID : 1
Format : AVC
Format/Info : Advanced Video Codec
Format profile : [url=mailto:[email protected]][email protected][/url]
Format settings, CABAC : Yes
Format settings, ReFrames : 2 frames
Format settings, GOP : M=3, N=12
Codec ID : V_MPEG4/ISO/AVC
Duration : 1h 52mn
Bit rate mode : Variable
Bit rate : 22.5 Mbps
Maximum bit rate : 23.3 Mbps
Width : 1 920 pixels
Height : 1 080 pixels
Display aspect ratio : 16:9
Frame rate mode : Constant
Frame rate : 23.976 fps
Standard : Component
Color space : YUV
Chroma subsampling : 4:2:0
Bit depth : 8 bits
Scan type : Progressive
Bits/(Pixel*Frame) : 0.452
Stream size : 17.7 GiB (93%)
Title : Les aventuriers.1967.HDDVDRemux
Language : French
Default : Yes
Forced : No
Color primaries : BT.709
Transfer characteristics : BT.709
Matrix coefficients : BT.709
Audio #1
ID : 2
Format : AC-3
Format/Info : Audio Coding 3
Mode extension : CM (complete main)
Format settings, Endianness : Big
Codec ID : A_AC3
Duration : 1h 52mn
Bit rate mode : Constant
Bit rate : 192 Kbps
Channel(s) : 2 channels
Channel positions : Front: L R
Sampling rate : 48.0 KHz
Bit depth : 16 bits
Compression mode : Lossy
Delay relative to video : -83ms
Stream size : 155 MiB (1%)
Title : AC3 2.0 @ 192 kbps - Dub
Language : Russian
Default : Yes
Forced : No
Audio #2
ID : 3
Format : AC-3
Format/Info : Audio Coding 3
Mode extension : CM (complete main)
Format settings, Endianness : Big
Codec ID : A_AC3
Duration : 1h 52mn
Bit rate mode : Constant
Bit rate : 448 Kbps
Channel(s) : 6 channels
Channel positions : Front: L C R, Side: L R, LFE
Sampling rate : 48.0 KHz
Bit depth : 16 bits
Compression mode : Lossy
Delay relative to video : -83ms
Stream size : 362 MiB (2%)
Title : AC3 5.1 @ 448 kbps - MVO
Language : Russian
Default : No
Forced : No
Audio #3
ID : 4
Format : AC-3
Format/Info : Audio Coding 3
Mode extension : CM (complete main)
Format settings, Endianness : Big
Codec ID : A_AC3
Duration : 1h 52mn
Bit rate mode : Constant
Bit rate : 640 Kbps
Channel(s) : 2 channels
Channel positions : Front: L R
Sampling rate : 48.0 KHz
Bit depth : 16 bits
Compression mode : Lossy
Delay relative to video : -83ms
Stream size : 517 MiB (3%)
Title : AC3 [email protected] 640 kbps - Original
Language : French
Default : No
Forced : No
Text
ID : 5
Format : PGS
Muxing mode : zlib
Codec ID : S_HDMV/PGS
Codec ID/Info : The same subtitle format used on BDs/HD-DVDs
Language : Russian
Default : No
Forced : No
Menu
00:00:00.000 : en:
00:00:08.199 : en:
00:02:16.033 : en:
00:04:09.450 : en:
00:07:55.616 : en:
00:09:41.450 : en:
00:12:18.750 : en:
00:14:19.032 : en:
00:16:10.366 : en:
00:17:33.000 : en:
00:19:41.333 : en:
00:22:38.116 : en:
00:25:01.199 : en:
00:26:48.449 : en:
00:28:46.083 : en:
00:30:53.616 : en:
00:32:22.950 : en:
00:34:32.250 : en:
00:36:34.916 : en:
00:37:45.949 : en:
00:39:30.366 : en:
00:40:50.000 : en:
00:43:03.000 : en:
00:44:22.750 : en:
00:47:16.199 : en:
00:50:36.116 : en:
00:51:58.500 : en:
00:53:40.166 : en:
00:55:02.950 : en:
00:58:02.666 : en:
01:01:24.166 : en:
01:05:11.750 : en:
01:07:50.700 : en:
01:09:48.533 : en:
01:12:11.450 : en:
01:14:48.582 : en:
01:16:47.000 : en:
01:19:32.250 : en:
01:22:29.533 : en:
01:25:06.750 : en:
01:28:20.666 : en:
01:29:43.450 : en:
01:32:37.916 : en:
01:33:35.832 : en:
01:36:22.200 : en:
01:39:07.366 : en:
01:40:17.166 : en:
01:42:00.833 : en:
01:44:35.033 : en:
01:46:11.283 : en:
01:47:22.700 : en:
01:49:12.783 : en:
01:50:43.333 : en:
01:51:32.166 : en:
Скриншоты:            Время раздачи: c 09:00 до 01:00
Other forum [Profile] [PM]
Display posts from previous:    
Reply to topic

The time now is: Today 12:54

All times are GMT + 3 Hours



You cannot post new topics in this forum
You cannot reply to topics in this forum
You cannot edit your posts in this forum
You cannot delete your posts in this forum
You cannot vote in polls in this forum
You cannot attach files in this forum
You cannot download files in this forum