Today is a free download without charge Download

Цвет денег / The Color of Money (Мартин Скорсезе / Martin Scorsese) [1986 г., драма, спорт, HDTVRip, 720p]

Reply to topic
 
Author
Message

Koralina ®

Longevity: 9 years 7 months

Posts: 994

Location: Lithuania

Торрент-статистика

Post 07-Nov-2011 00:33

[Quote]

Цвет денег / The Color of Money Оригинальное название: Цвет денег / The Color of Money
Русское название: Цвет денег
Оригинальное название: The Color of Money
Год выхода: 1986
Режиссер: Мартин Скорсезе
В ролях: Пол Ньюман, Том Круз, Мэри Элизабет Мастрантонио, Хелен Шейвер, Джон Туртурро, Билл Коббс, Robert Agins, Элвин Анастасия, Randall Arney, Элизабет Бракк
Роли дублировали: Владимир Еремин, Егор Грамматиков, Ольга Голованова, Марина Тарасова, Александр Рахленко
Страна производства: США
Продолжительность: 119 мин.
Перевод: Профессиональный (полное дублирование), Многоголосый закадровый, Одноголосый закадровый, А.Михалев, English
Продюсер: Ирвинг Аксельрод, Барбара Де Фина, Доди Фостер
Сценарий: Уолтер Тевис, Ричард Прайс
Премьера в мире: 8 октября 1986
Жанр: драма, спорт
Описание: Быстрому Эдди, виртуозному игроку в бильярд, нет равных за зеленым столом. Для других это развлечение, для него серьезная работа и большие деньги. У него появляется конкурент, новичок Винц, у которого есть все, что нужно для победы: талант, везение и поддержка обворожительной подруги, но ему не хватает почерка мастера.Эдди становится его наставником и учит восходящую звезду тонкостям большой игры. На зеленом сукне, цвета денег, один на один с судьбой
Рейтинг MPAA: R - Лицам до 17 лет обязательно присутствие взрослого
Рейтинг IMDB:
Рейтинг Kinopoisk:
Доп. информация: Премия «Оскар», 1987г. за Лучшую мужскую роль (Пол Ньюман).
Качество: HDTVRip
Формат: MKV
Видео кодек: H.264
Аудио кодек: AC3
Видео: 1280x692 (1.85:1) at 23.976 fps, [email protected], 2pass, ~4844 kbps avg
Аудио: Аудио#1: Russian: 48 kHz, AC3, 2/0 (L,R) ch, ~192.00 kbps avg |Дубляж, Первый канал|
Аудио#2: Russian: 48 kHz, AC3, 3/2 (L,C,R,l,r) + LFE ch, ~384.00 kbps avg |Многоголосый закадровый|
Аудио#3: Russian: 48 kHz, AC3, 3/2 (L,C,R,l,r) + LFE ch, ~384.00 kbps avg |Одноголосый закадровый, А.Михалев|
Аудио#4: English: 48 kHz, AC3, 3/2 (L,C,R,l,r) + LFE ch, ~384.00 kbps avg
Субтитры: Russian, English

MediaInfo

Общее
Уникальный идентификатор : 194954285645363750112060714592392433441 (0x92AAD46403C1EAC58E9B157A27BBCF21)
Полное имя : D:\FILMS\The.Color.of.Money.1986.720p.HDTV.3xRus.Eng.HDCLUB.mkv
Формат : Matroska
Версия формата : Version 2
Размер файла : 5,17 Гбайт
Продолжительность : 1 ч. 59 м.
Общий поток : 6191 Кбит/сек
Название фильма : The Color Of Money (1986) - Release for HDClub
Дата кодирования : UTC 2010-03-06 18:55:40
Программа кодирования : mkvmerge v3.0.0 ('Hang up your Hang-Ups') built on Dec 12 2009 15:20:35
Библиотека кодирования : libebml v0.7.9 + libmatroska v0.8.1
Видео
Идентификатор : 1
Формат : AVC
Формат/Информация : Advanced Video Codec
Профиль формата : [email protected]
Параметр CABAC формата : Да
Параметр ReFrames формата : 4 кадра
Идентификатор кодека : V_MPEG4/ISO/AVC
Продолжительность : 1 ч. 59 м.
Битрейт : 4844 Кбит/сек
Ширина : 1280 пикселей
Высота : 692 пикселя
Соотношение сторон : 1,850
Частота кадров : 23,976 кадра/сек
Цветовое пространство : YUV
Субдискретизация насыщенности : 4:2:0
Битовая глубина : 8 бит
Тип развёртки : Прогрессивная
Бит/(Пиксели*Кадры) : 0.228
Размер потока : 3,95 Гбайт (76%)
Заголовок : Release for HDClub
Библиотека кодирования : x264 core 65 r999M cc51047
Настройки программы : cabac=1 / ref=4 / deblock=1:-3:-3 / analyse=0x3:0x113 / me=umh / subme=9 / psy_rd=1.0:1.0 / mixed_ref=1 / me_range=24 / chroma_me=1 / trellis=2 / 8x8dct=1 / cqm=2 / deadzone=21,11 / chroma_qp_offset=-4 / threads=6 / nr=0 / decimate=0 / mbaff=0 / bframes=3 / b_pyramid=0 / b_adapt=2 / b_bias=0 / direct=3 / wpredb=1 / keyint=250 / keyint_min=25 / scenecut=40(pre) / rc=2pass / bitrate=4844 / ratetol=1.0 / qcomp=0.60 / qpmin=10 / qpmax=51 / qpstep=4 / cplxblur=20.0 / qblur=0.5 / vbv_maxrate=50000 / vbv_bufsize=50000 / ip_ratio=1.40 / pb_ratio=1.30 / aq=1:1.00
Язык : English
Аудио #1
Идентификатор : 2
Формат : AC-3
Формат/Информация : Audio Coding 3
Расширение режима : CM (complete main)
Идентификатор кодека : A_AC3
Продолжительность : 1 ч. 59 м.
Вид битрейта : Постоянный
Битрейт : 192 Кбит/сек
Каналы : 2 канала
Расположение каналов : Front: L R
Частота : 48,0 КГц
Битовая глубина : 16 бит
Метод сжатия : С потерями
Задержка видео : 2 мс.
Размер потока : 164 Мбайт (3%)
Заголовок : AC3 2.0 192k Dub (1TV.RU)
Язык : Russian
Аудио #2
Идентификатор : 3
Формат : AC-3
Формат/Информация : Audio Coding 3
Расширение режима : CM (complete main)
Идентификатор кодека : A_AC3
Продолжительность : 1 ч. 59 м.
Вид битрейта : Постоянный
Битрейт : 384 Кбит/сек
Каналы : 6 каналов
Расположение каналов : Front: L C R, Side: L R, LFE
Частота : 48,0 КГц
Битовая глубина : 16 бит
Метод сжатия : С потерями
Размер потока : 329 Мбайт (6%)
Заголовок : AC3 5.1 384k Mnogogoloska
Язык : Russian
Аудио #3
Идентификатор : 4
Формат : AC-3
Формат/Информация : Audio Coding 3
Расширение режима : CM (complete main)
Идентификатор кодека : A_AC3
Продолжительность : 1 ч. 59 м.
Вид битрейта : Постоянный
Битрейт : 384 Кбит/сек
Каналы : 6 каналов
Расположение каналов : Front: L C R, Side: L R, LFE
Частота : 48,0 КГц
Битовая глубина : 16 бит
Метод сжатия : С потерями
Размер потока : 329 Мбайт (6%)
Заголовок : AC3 5.1 384k Mihalev
Язык : Russian
Аудио #4
Идентификатор : 5
Формат : AC-3
Формат/Информация : Audio Coding 3
Расширение режима : CM (complete main)
Идентификатор кодека : A_AC3
Продолжительность : 1 ч. 59 м.
Вид битрейта : Постоянный
Битрейт : 384 Кбит/сек
Каналы : 6 каналов
Расположение каналов : Front: L C R, Side: L R, LFE
Частота : 48,0 КГц
Битовая глубина : 16 бит
Метод сжатия : С потерями
Размер потока : 329 Мбайт (6%)
Заголовок : Original AC3 5.1 384k
Язык : English
Текст #1
Идентификатор : 6
Формат : UTF-8
Идентификатор кодека : S_TEXT/UTF8
Идентификатор кодека/Информация : UTF-8 Plain Text
Язык : Russian
Текст #2
Идентификатор : 7
Формат : UTF-8
Идентификатор кодека : S_TEXT/UTF8
Идентификатор кодека/Информация : UTF-8 Plain Text
Язык : English

Скриншоты

       

_________________


Last edited by Koralina on 2011-11-07 08:15; edited 1 time in total
Other forum [Profile] [PM]
Display posts from previous:    
Reply to topic

The time now is: Today 20:37

All times are GMT + 3 Hours



You cannot post new topics in this forum
You cannot reply to topics in this forum
You cannot edit your posts in this forum
You cannot delete your posts in this forum
You cannot vote in polls in this forum
You cannot attach files in this forum
You cannot download files in this forum