Today is a free download without charge Download

Снежная королева ( Геннадий Казанский)[1966.,Фэнтези, Приключения, Семейный] DVD5 [Реставрация]

Reply to topic
 
Author
Message

sashau ®

Gender:

Longevity: 9 years 6 months

Posts: 3497

Торрент-статистика

Post 24-Nov-2013 10:05

[Quote]

Снежная королева - Русское название: Снежная королева
Год выпуска: 1966
Жанр: Фэнтези, Приключения, Семейный
Вид субтитров: Вшитые
Язык субтитров: французский, итальянский, японский, иврит, китайский, английский, немецкий, испанский, португальский, шведский, арабский
Режиссер: Геннадий Казанский
Актеры: Елена Проклова, Слава Цюпа, Валерий Никитенко, Евгения Мельникова, Наталья Климова, Николай Боярский, Евгений Леонов, Ирина Губанова, Георгий Корольчук, Ольга Викландт, Эра Зиганшина, Андрей Костричкин, Вера Титова
Описание фильма:
Советский фильм-сказка снятый режиссером Геннадием Казанским по мотивам одноименной сказки Ганса Христиана Андерсена. Оригинальный сценарий фильма был написан знаменитым советским писателем Евгением Шварцем.
Картина повествует зрителям о великой любви, о верности и о человеческой доброте, о необыкновенном и головокружительном путешествии маленькой скромной девочки Герды, которой пришлось отправиться в царство Снежной Королевы, чтобы спасти своего друга Кая. А все потому, что однажды, в один из зимних морозных вечером, когда во дворе запела вьюга, а на землю опустилась темнота, Снежная Королева украла маленького Кая и увезла его в свои владения, чтобы превратить его доброе отзывчивое сердце в бездушные осколки льда…
Бедной Герде придется пройти через огромное множество самых разных испытаний: девочка повстречается с принцем и принцессой, увидит говорящих Ворону и Ворона, побывает в замке у хитроумного и очень коварного, но в тоже время смешного короля, и даже познакомиться с лесными разбойниками. И хотя, порой Герде будет казаться, что она не сможет пройти задуманный путь, удивительная смелость и верное сердце девочки помогут ей одолеть все преграды и спасти Кая из ледяного плена, в котором царят душевный холод и глубокое безразличие…
Премьера (мир): 6 ноября 1967
Релиз на DVD: 16 июня 2011, «Парадиз Медиа

Продолжительность: 01:19:36
Качество видео: DVD5
Видео: MPEG 2, 720x576 (16:9), 25.000 fps, 7 000 Kbps (0.675 bit/pixel)
Аудио: AC-3, 48.0 KHz, 6 ch, 448 Kbps, CBR

МедиаИнфо:

Видео
Идентификатор : 224 (0xE0)
Формат : MPEG Video
Версия формата : Version 2
Профиль формата : [email protected]
Параметр BVOP формата : Да
Параметр матрицы формата : Выборочная
Параметр GOP формата : M=3, N=12
Продолжительность : 18 м.
Битрейт : 7075 Кбит/сек
Максимальный битрейт : 7000 Кбит/сек
Ширина : 720 пикселей
Высота : 576 пикселей
Соотношение сторон : 16:9
Частота кадров : 25,000 кадров/сек
Стандарт вещания : PAL
Цветовое пространство : YUV
Субдискретизация насыщенности : 4:2:0
Битовая глубина : 8 бит
Тип развёртки : Чересстрочная
Порядок развёртки : Верхнее поле первое
Метод сжатия : С потерями
Бит/(Пиксели*Кадры) : 0.682
Размер потока : 944 Мбайт (92%)
Аудио
Идентификатор : 189 (0xBD)-128 (0x80)
Формат : AC-3
Формат/Информация : Audio Coding 3
Расширение режима : CM (complete main)
Параметр Endianness формата : Big
Режим смешивания : DVD-Video
Продолжительность : 18 м.
Вид битрейта : Постоянный
Битрейт : 448 Кбит/сек
Каналы : 6 каналов
Расположение каналов : Front: L C R, Side: L R, LFE
Частота : 48,0 КГц
Битовая глубина : 16 бит
Метод сжатия : С потерями
Задержка видео : -80 мс.
Размер потока : 59,8 Мбайт (6%)
Текст #1
Идентификатор : 189 (0xBD)-33 (0x21)
Формат : RLE
Формат/Информация : Run-length encoding
Режим смешивания : DVD-Video
Продолжительность : 18 м.
Задержка видео : 160 мс.
Текст #2
Идентификатор : 189 (0xBD)-34 (0x22)
Формат : RLE
Формат/Информация : Run-length encoding
Режим смешивания : DVD-Video
Продолжительность : 18 м.
Задержка видео : 160 мс.
Текст #3
Идентификатор : 189 (0xBD)-35 (0x23)
Формат : RLE
Формат/Информация : Run-length encoding
Режим смешивания : DVD-Video
Продолжительность : 18 м.
Задержка видео : 160 мс.
Текст #4
Идентификатор : 189 (0xBD)-36 (0x24)
Формат : RLE
Формат/Информация : Run-length encoding
Режим смешивания : DVD-Video
Продолжительность : 18 м.
Задержка видео : 160 мс.
Текст #5
Идентификатор : 189 (0xBD)-37 (0x25)
Формат : RLE
Формат/Информация : Run-length encoding
Режим смешивания : DVD-Video
Продолжительность : 18 м.
Задержка видео : 160 мс.
Текст #6
Идентификатор : 189 (0xBD)-38 (0x26)
Формат : RLE
Формат/Информация : Run-length encoding
Режим смешивания : DVD-Video
Продолжительность : 18 м.
Задержка видео : 160 мс.
Текст #7
Идентификатор : 189 (0xBD)-39 (0x27)
Формат : RLE
Формат/Информация : Run-length encoding
Режим смешивания : DVD-Video
Продолжительность : 18 м.
Задержка видео : 160 мс.
Текст #8
Идентификатор : 189 (0xBD)-40 (0x28)
Формат : RLE
Формат/Информация : Run-length encoding
Режим смешивания : DVD-Video
Продолжительность : 18 м.
Задержка видео : 160 мс.
Текст #9
Идентификатор : 189 (0xBD)-41 (0x29)
Формат : RLE
Формат/Информация : Run-length encoding
Режим смешивания : DVD-Video
Продолжительность : 18 м.
Задержка видео : 160 мс.
Текст #10
Идентификатор : 189 (0xBD)-42 (0x2A)
Формат : RLE
Формат/Информация : Run-length encoding
Режим смешивания : DVD-Video
Продолжительность : 18 м.
Задержка видео : 160 мс.
Текст #11
Идентификатор : 189 (0xBD)-43 (0x2B)
Формат : RLE
Формат/Информация : Run-length encoding
Режим смешивания : DVD-Video
Продолжительность : 18 м.
Задержка видео : 160 мс.
Текст #12
Идентификатор : 189 (0xBD)-44 (0x2C)
Формат : RLE
Формат/Информация : Run-length encoding
Режим смешивания : DVD-Video
Продолжительность : 18 м.
Задержка видео : 160 мс.
Текст #13
Идентификатор : 189 (0xBD)-32 (0x20)
Формат : RLE
Формат/Информация : Run-length encoding
Режим смешивания : DVD-Video
Меню

Дополнительная информация:

- Издатель: Ленфильм-Видео, 2008 год, полная реставрация изображения и звука.
- "Снежная королева" один из первых фильмов, в котором была попытка использовать мультипликацию.
- Некоторые эпизоды, например: когда Герда летит на вороне, были нарисованы.
- Елена Проклова (в те времена - еще Леночка, восходящая звезда нашего детского кино) сыграла здесь без особых затей и "вторых планов". Но Герда удалась вполне, ибо главное в ней схвачено точно - та непобедимая сила, которую даже ребенку дают любовь и верность. Ведь в сказках Шварца - в отличие от Андерсена - волшебства почти не бывает. Вот и приходится девочке все делать самой, без особой надежды на колдовство и прочие внешние силы. Тем более живым получается действие.

Обложки, Диски

           

Скриншоты Меню:

       
Скриншоты:
         
         
Other forum [Profile] [PM]
Display posts from previous:    
Reply to topic

The time now is: Today 23:35

All times are GMT + 3 Hours



You cannot post new topics in this forum
You cannot reply to topics in this forum
You cannot edit your posts in this forum
You cannot delete your posts in this forum
You cannot vote in polls in this forum
You cannot attach files in this forum
You cannot download files in this forum