Today is a free download without charge Download

Настоятель-2 ( Игорь Москвитин) [2011,Драма, Криминал, SATRip]

Reply to topic
 
Author
Message

sassad ®

Gender:

Longevity: 9 years 7 months

Posts: 1214

Location: Галич

Торрент-статистика

Post 05-Nov-2011 20:03

[Quote]

Настоятель-2- Год выпуска: 2011
Производство: Россия, Кинокомпания "Триикс Медиа"
Жанр: Драма, Криминал
Язык: Русский
Субтитры: Отсутствуют

Дата российской премьеры: 5 ноября 2011
Режиссер: Игорь Москвитин
Продюсер: Инесса Юрченко, Сергей Щеглов, Алексей Рыбин
Актеры: Егор Пазенко, Андрей Чубченко, Анна Табанина, Дмитрий Лебедев, Павел Миронов, Кирилл Датешидзе, Наталья Ткаченко, Вадим Парфенов, Геша Меньшиков, Федор Коносов
Описание фильма:
С момента последних событий прошло время. Отец Андрей все также читает проповеди, иногда заходит в бар, чтобы пообщаться с прихожанами в неформальной обстановке. Прихожане, кстати, подарили ему старый мотоцикл, который он ремонтирует в свободное время. Помогает ему в этом Гришка, сын Кати. В городе после того, как был арестован и посажен Агафонов — тишь да благодать. Нет, ну случаются какие-то происшествия, но начальник местной милиции Муров — стоит на страже закона. А еще иногда отец Андрей ездит на рыбалку вместе с Семеном и Гришкой. Ему нравится на заре посидеть у воды, подумать о своей прошлой жизни. Неожиданно в городе приезжает некто Иван Денисов. Он ищет отца Андрея. Много лет назад, Иван и Андрей были в одной бригаде. Вместе «решали вопросы», делали «темные дела». Иван был правой рукой Андрея. Потом Ивана посадили, а Андрей потерял жену и переосмыслил свою жизнь.
Продолжительность: 01:29:58
Качество видео: SATRip
Видеокодек: Xvid
Битрейт видео: ~1496 Kbit/s
Размер кадра: 704 x 384
Аудиокодек: MP3, 2.0
Битрейт аудио: 128 Kbit/s

MediaInfo

Общее
Полное имя : D:\Торренты\Nastojatel.2.2011.XviD.SATRip.avi
Формат : AVI
Формат/Информация : Audio Video Interleave
Размер файла : 1,03 Гбайт
Продолжительность : 1 ч. 29 м.
Общий поток : 1637 Кбит/сек
Видео
Идентификатор : 0
Формат : xvid
Идентификатор кодека : xvid
Продолжительность : 1 ч. 29 м.
Битрейт : 1496 Кбит/сек
Ширина : 704 пикс.
Высота : 384 пикс.
Соотношение сторон : 16:9
Частота кадров : 25,000 кадр/сек
Бит/(Пиксели*Кадры) : 0.221
Размер потока : 963 Мбайт (91%)
Аудио
Идентификатор : 1
Формат : MPEG Audio
Версия формата : Version 1
Профиль формата : Layer 3
Режим : Joint stereo
Расширение режима : MS Stereo
Идентификатор кодека : 55
Идентификатор кодека/Подсказка : MP3
Продолжительность : 1 ч. 29 м.
Вид битрейта : Постоянный
Битрейт : 128 Кбит/сек
Каналы : 2 канала
Частота : 48,0 КГц
Метод сжатия : С потерями
Размер потока : 82,4 Мбайт (8%)
Выравнивание : Соединение по промежуткам
Продолжительность промежутка : 24 мс. (0,60 видеокадр)
Время предзагрузки промежутка : 504 ms

Скриншоты

           

_________________
Other forum [Profile] [PM]
Similar theme
Forum Topic Author Torrent Replies Last Post
./templates/default/images/folder_dl.gif ЖЗЛ. Биографии. Мемуары. Историография. Александр Коржаков | Бесы 2.0. А цари-то ненастоящие! (2018) [FB2] }{@R0N
1 | 0

0 | 1074

3

2018-07-31 21:29
}{@R0N Latest
Display posts from previous:    
Reply to topic

The time now is: Today 21:57

All times are GMT + 3 Hours



You cannot post new topics in this forum
You cannot reply to topics in this forum
You cannot edit your posts in this forum
You cannot delete your posts in this forum
You cannot vote in polls in this forum
You cannot attach files in this forum
You cannot download files in this forum