Today is a free download without charge Download

Мудрая госпожа (Павел Арнаут) [2012, Музыкальная история-притча в стихах(анимация), WEBRip]

Reply to topic
 
Author
Message

Omen ®

Longevity: 7 years 11 months

Posts: 181087

Торрент-статистика

Post 22-Nov-2013 14:02

[Quote]

Мудрая госпожа
Страна: Россия
Жанр: Музыкальная история-притча в стихах(анимация)
Продолжительность: 00:14:43
Год выпуска: 2012
Перевод: Не требуется
Русские субтитры: нет

Режиссёр: Павел Арнаут
Роли озвучивали: Наталия Лансере, Елена Махинина, Ирина Коробова, Марина Кобеляцкая, Олег Сивачев.

Описание: Музыкальная история-притча в стихах.
"Подарок - твой, и выбор - твой,
Его не сделает другой..." - это главная мысль истории...

Доп. информация: Фильм взят с христианского сайта.
Качество: WEBRip
Формат: AVI
Видео: 656x480; 25.000 fps, XviD*512 kbps;
Аудио: 128 kbps; 44,1 khz; 2 ch, MP3
Субтитры: отсутствуют

Подробные технические данные

Формат : AVIФормат/Информация : Audio Video InterleaveРазмер файла : 68,8 МбайтПродолжительность : 14 м.Режим общего битрейта : ПеременныйОбщий поток : 653 Кбит/секПрограмма кодирования : MEncoder r33883Библиотека кодирования : MPlayer
ВидеоИдентификатор : 0Формат : MPEG-4 VisualПрофиль формата : [email protected]Параметр BVOP формата : НетПараметр QPel формата : НетПараметр GMC формата : Без точки переходаПараметр матрицы формата : Default (H.263)Идентификатор кодека : XVIDИдентификатор кодека/Подсказка : XviDПродолжительность : 14 м.Битрейт : 511 Кбит/секШирина : 656 пикселейВысота : 480 пикселейСоотношение сторон : 4:3Частота кадров : 25,000 кадров/секЦветовое пространство : YUVСубдискретизация насыщенности : 4:2:0Битовая глубина : 8 битТип развёртки : ПрогрессивнаяМетод сжатия : С потерямиБит/(Пиксели*Кадры) : 0.065Размер потока : 53,8 Мбайт (78%)Библиотека кодирования : XviD 63
АудиоИдентификатор : 1Формат : MPEG AudioВерсия формата : Version 1Профиль формата : Layer 3Режим : Joint stereoРасширение режима : MS StereoИдентификатор кодека : 55Идентификатор кодека/Подсказка : MP3Продолжительность : 14 м.Вид битрейта : ПеременныйБитрейт : 128 Кбит/секКаналы : 2 каналаЧастота : 44,1 КГцМетод сжатия : С потерямиРазмер потока : 13,6 Мбайт (20%)Выравнивание : Соединение по промежуткамПродолжительность промежутка : 26 мс. (0,65 видеокадр)Время предзагрузки промежутка : 468 мс.

Скриншоты

Other forum [Profile] [PM]
Display posts from previous:    
Reply to topic

The time now is: Today 17:28

All times are GMT + 3 Hours



You cannot post new topics in this forum
You cannot reply to topics in this forum
You cannot edit your posts in this forum
You cannot delete your posts in this forum
You cannot vote in polls in this forum
You cannot attach files in this forum
You cannot download files in this forum