Today is a free download without charge Download

Вдребезги (Роман Каримов) [2011, Россия, комедия, DVD9] R5 «Парадиз Видео»

Reply to topic
 
Author
Message

voovaz ®

Gender:

Longevity: 9 years

Posts: 87

Торрент-статистика

Post 05-Nov-2011 14:38

[Quote]

-Вдребезги-«Судьба расставит все точки над Ё» -Страна: Россия
Студия: Продюсерский центр «Парадиз»
Жанр: комедия
Год выпуска: 2011
Мировая премьера: 6 октября 2011, «Парадиз»
Российская премьера: 25 августа 2011
Дата выхода DVD: 8 ноября 2011, «Парадиз Видео»
Продолжительность: 01:29:15
Перевод: Оригинал [Лицензия]
Cубтитры: русские, английские
Оригинальная аудиодорожка: русский-Режиссер: Роман Каримов-В ролях: Никита Дювбанов, Артем Ткаченко, Равшана Куркова, Иван Николаев, Александр Плющев, Александр Дульщиков, Кристина Казурова, Евгения Абрамова, Павел Дикан, Тимур Крючков-Описание: Что делать с людьми, которые нам так мешают в нашей жизни? Может их убить? А можем ли мы убить? А кто может убить?
…Две девушки-маньячки сбивают велосипедиста, убивают педофила, угоняют машину у гламурного подонка…
…Известный ди-джей ведет скандальное шоу, где прикалывается над слушателями. После очередного эфира ди-джея похищают…
… Жена, мечтающая порвать с мужем, приглашает на день рождения босса-любовника. Пока она ходила за сигаретами, в доме происходит убийство… Пути героев этих историй, составляющих абсурдно-жестокую черную комедию, пересекаются на загородном шоссе, когда судьба сама расставляет все точки над Ё…
-Бонусы: Комментарии режиссера, Смотрите на DVD- -Релиз группы: -Качество: DVD9 R5
Формат: DVD-Video
Видео кодек: MPEG2
Аудио кодек: AC3
Видео: PAL 16:9 (720x576(0.770)) MPEG Video, 25,000 кадр/сек, 7986 Кбит/сек
Аудио #1: Russian (Dolby AC3, 6 ch) 384 Кбит/сек, 48,0 КГц
Аудио #2: Russian (Dolby AC3, 2 ch) 192 Кбит/сек, 48,0 КГц
Аудио #3: Russian (Dolby AC3, 2 ch) 192 Кбит/сек, 48,0 КГц
Аудио #4: Russian (Dolby AC3, 2 ch) 192 Кбит/сек, 48,0 КГц-
-

DVDInfo

Title: Рабочий
Size: 6.39 Gb ( 6 702 826 KBytes ) - DVD-9
Enabled regions: 1, 2, 3, 4, 5, 6, 7, 8
VTS_01 :
Play Length: 00:00:01+01:29:12
Video: PAL 16:9 (720x576) VBR, Auto Letterboxed
Audio:
Russian (Dolby AC3, 6 ch)
Russian (Dolby AC3, 2 ch)
Russian (Dolby AC3, 2 ch)
Russian (Dolby AC3, 2 ch)
Subtitles:
English
Russian
VTS_02 :
Play Length: 00:00:01+00:00:11
Video: PAL 16:9 (720x576) VBR, Auto Letterboxed
Audio:
Russian (Dolby AC3, 2 ch)
VTS_03 :
Play Length: 00:00:01+00:00:19
Video: PAL 4:3 (720x576) VBR
Audio:
Russian (Dolby AC3, 2 ch)
VTS_04 :
Play Length: 00:00:01+00:12:15
Video: PAL 16:9 (720x576) VBR, Auto Letterboxed
Audio:
Russian (Dolby AC3, 2 ch)

MediaInfo

Общее
Полное имя : G:\Новинки 2011\Vdrebezgi .2011.DVD9\VIDEO_TS\VTS_01_1.VOB
Формат : MPEG-PS
Размер файла : 1024 Мбайт
Продолжительность : 15 м.
Общий поток : 9128 Кбит/сек
Видео
Идентификатор : 224 (0xE0)
Формат : MPEG Video
Версия формата : Version 2
Профиль формата : [email protected]
Параметр BVOP формата : Да
Параметр матрицы формата : Выборочная
Продолжительность : 15 м.
Битрейт : 7986 Кбит/сек
Максимальный битрейт : 6000 Кбит/сек
Ширина : 720 пикселей
Высота : 576 пикселей
Соотношение сторон : 16:9
Частота кадров : 25,000 кадров/сек
Стандарт вещания : PAL
Цветовое пространство : YUV
Субдискретизация насыщенности : 4:2:0
Битовая глубина : 8 бит
Тип развёртки : Чересстрочная
Порядок развёртки : Нижнее поле первое
Метод сжатия : С потерями
Бит/(Пиксели*Кадры) : 0.770
Размер потока : 896 Мбайт (87%)
Аудио #1
Идентификатор : 189 (0xBD)-128 (0x80)
Формат : AC-3
Формат/Информация : Audio Coding 3
Расширение режима : CM (complete main)
Режим смешивания : DVD-Video
Продолжительность : 15 м.
Вид битрейта : Постоянный
Битрейт : 384 Кбит/сек
Каналы : 6 каналов
Расположение каналов : Front: L C R, Side: L R, LFE
Частота : 48,0 КГц
Битовая глубина : 16 бит
Метод сжатия : С потерями
Размер потока : 43,1 Мбайт (4%)
Аудио #2
Идентификатор : 189 (0xBD)-129 (0x81)
Формат : AC-3
Формат/Информация : Audio Coding 3
Расширение режима : CM (complete main)
Режим смешивания : DVD-Video
Продолжительность : 15 м.
Вид битрейта : Постоянный
Битрейт : 192 Кбит/сек
Каналы : 2 канала
Расположение каналов : Front: L R
Частота : 48,0 КГц
Битовая глубина : 16 бит
Метод сжатия : С потерями
Размер потока : 21,5 Мбайт (2%)
Аудио #3
Идентификатор : 189 (0xBD)-130 (0x82)
Формат : AC-3
Формат/Информация : Audio Coding 3
Расширение режима : CM (complete main)
Режим смешивания : DVD-Video
Продолжительность : 15 м.
Вид битрейта : Постоянный
Битрейт : 192 Кбит/сек
Каналы : 2 канала
Расположение каналов : Front: L R
Частота : 48,0 КГц
Битовая глубина : 16 бит
Метод сжатия : С потерями
Размер потока : 21,5 Мбайт (2%)
Аудио #4
Идентификатор : 189 (0xBD)-131 (0x83)
Формат : AC-3
Формат/Информация : Audio Coding 3
Расширение режима : CM (complete main)
Режим смешивания : DVD-Video
Продолжительность : 15 м.
Вид битрейта : Постоянный
Битрейт : 192 Кбит/сек
Каналы : 2 канала
Расположение каналов : Front: L R
Частота : 48,0 КГц
Битовая глубина : 16 бит
Метод сжатия : С потерями
Размер потока : 21,5 Мбайт (2%)
Текст #1
Идентификатор : 189 (0xBD)-32 (0x20)
Формат : RLE
Формат/Информация : Run-length encoding
Режим смешивания : DVD-Video
Текст #2
Идентификатор : 189 (0xBD)-33 (0x21)
Формат : RLE
Формат/Информация : Run-length encoding
Режим смешивания : DVD-Video

Скриншоты меню

       

Скриншоты фильма

               
-
-
-
-
Other forum [Profile] [PM]
Display posts from previous:    
Reply to topic

The time now is: Today 19:26

All times are GMT + 3 Hours



You cannot post new topics in this forum
You cannot reply to topics in this forum
You cannot edit your posts in this forum
You cannot delete your posts in this forum
You cannot vote in polls in this forum
You cannot attach files in this forum
You cannot download files in this forum