Today is a free download without charge Download

Дочь (Александр Касаткин, Наталья Назарова) [2012, драма, детектив, WEB-DL 720p]

Reply to topic
 
Author
Message

DED ®

Longevity: 7 years 11 months

Posts: 3943

Торрент-статистика

Post 21-Nov-2013 14:40

[Quote]

--Дочь-- Год выхода: 2012
Страна: Россия
Производство: Студия Горького, Валдай
Жанр: драма, детектив
Продолжительность: 01:45:55
Перевод: Не требуется-Режиссер: Александр Касаткин, Наталья Назарова-В ролях: Мария Смольникова, Олег Ткачёв, Игорь Мазепа, Владимир Мишуков, Яна Осипова, Мария Звонарева, Кирилл Назаров, Анастасия Имамова, Евгений Ткачук, Алена Кузнецова...-О фильме: Инна живет со своим папой и маленьким братом в небольшом провинциальном городе. Ее жизнь меняется, когда новая девочка - Маша приезжает в школу, в которой учится Инна. Между ними завязывается дружба. Но Маша становится жертвой серийного маньяка, который орудует в городке, убивая девочек 13-15 лет. Приехав на панихиду в церковь, Инна встречает сына священника - Илью, чья сестра тоже была убита.-- --Качество: WEB-DL 720p
Формат: MKV
Видео кодек: H.264
Аудио кодек: AC3
Видео: 960х[email protected] (1.86:1), 25.000 fps, MPEG-4 AVC, ~4000 kbps avg, 0.236 bit/pixel
Аудио: 48.0 kHz, AC3 Dolby Digital, 5.1 (L,C,R,l,r) + LFE ch, ~384.00 kbps avg
Субтитры: нет
Дополнительно: Сохранены оригинальные чаптеры, как на Blu-Ray.--

Media Info

Общее
Уникальный идентификатор : 211825883939843328446108742044014940318 (0x9F5C2E68DD4A26D490ED951FD9E1109E)
Полное имя : Doch.2012.720p.WEB-DL.Rus.HDCLUB.mkv
Формат : Matroska
Версия формата : Version 2
Размер файла : 3,23 Гбайт
Продолжительность : 1 ч. 45 м.
Общий поток : 4362 Кбит/сек
Название фильма : Doch (2012) - Release for HDCLUB
Дата кодирования : UTC 2013-11-20 20:30:53
Программа кодирования : mkvmerge v3.4.0 ('Rapunzel') built on May 15 2010 09:38:20
Библиотека кодирования : libebml v0.8.0 + libmatroska v0.9.0
Видео
Идентификатор : 1
Формат : AVC
Формат/Информация : Advanced Video Codec
Профиль формата : [email protected]
Параметр CABAC формата : Нет
Параметр ReFrames формата : 2 кадра
Идентификатор кодека : V_MPEG4/ISO/AVC
Продолжительность : 1 ч. 45 м.
Битрейт : 4000 Кбит/сек
Ширина : 960 пикселей
Высота : 688 пикселей
Соотношение сторон : 1,85:1
Режим частоты кадров : Постоянный
Частота кадров : 25,000 кадров/сек
Цветовое пространство : YUV
Субдискретизация насыщенности : 4:2:0
Битовая глубина : 8 бит
Тип развёртки : Прогрессивная
Бит/(Пиксели*Кадры) : 0.236
Размер потока : 2,88 Гбайт (89%)
Заголовок : Doch (2012) - Release for HDCLUB
Язык : Russian
Default : Да
Forced : Нет
Основные цвета : BT.709
Характеристики трансфера : BT.709
Коэффициенты матрицы : BT.709
Аудио
Идентификатор : 2
Формат : AC-3
Формат/Информация : Audio Coding 3
Расширение режима : CM (complete main)
Параметр Endianness формата : Big
Идентификатор кодека : A_AC3
Продолжительность : 1 ч. 45 м.
Вид битрейта : Постоянный
Битрейт : 384 Кбит/сек
Каналы : 6 каналов
Расположение каналов : Front: L C R, Side: L R, LFE
Частота : 48,0 КГц
Битовая глубина : 16 бит
Метод сжатия : С потерями
Размер потока : 291 Мбайт (9%)
Заголовок : AC3 5.1 @ 384 kbps
Язык : Russian
Default : Да
Forced : Нет
Меню
00:00:00.000 : Глава 1
00:09:28.000 : Глава 2
00:17:57.000 : Глава 3
00:27:10.000 : Глава 4
00:39:51.000 : Глава 5
00:48:28.000 : Глава 6
00:58:29.000 : Глава 7
01:09:01.000 : Глава 8
01:18:08.000 : Глава 9
01:26:47.000 : Глава 10
01:35:01.000 : Глава 11
01:43:14.000 : Глава 12

Скриншоты

       
-- --
Other forum [Profile] [PM]
Display posts from previous:    
Reply to topic

The time now is: Today 22:24

All times are GMT + 3 Hours



You cannot post new topics in this forum
You cannot reply to topics in this forum
You cannot edit your posts in this forum
You cannot delete your posts in this forum
You cannot vote in polls in this forum
You cannot attach files in this forum
You cannot download files in this forum