Today is a free download without charge Download

Муха-Цокотуха. Сборник мультфильмов по сказкам К. И. Чуковского (Борис Степанцев, Леонид Амальрик, Наталия Червинская, Борис Аблынин и Сергей Олифиренко, Владимир Морозов)[1946-1985., Сборник мультфильмов, рисованная анимация] DVD5

Reply to topic
 
Author
Message

sashau ®

Gender:

Longevity: 8 years 10 months

Posts: 3497

Торрент-статистика

Post 21-Nov-2013 11:00

[Quote]

Муха-Цокотуха. Сборник мультфильмов по сказкам К. И. Чуковского - Год выпуска: 1946-1985
Жанр: Сборник мультфильмов, рисованная анимация
Описание фильма:
1. Павлиний хвост, 1946 г.
2. Муха-Цокотуха, 1977 г.
3. Айболит и Бармалей, 1955 г.
4. Бибигон, 1981 г.
5. Чудо-дерево, 1985 г.
Режиссер: Борис Степанцев, Леонид Амальрик, Наталия Червинская, Борис Аблынин и Сергей Олифиренко, Владимир Морозов
Продолжительность: 00:59:10
Качество видео: DVD5

Видеокодек: MPEG-2
Битрейт видео: ~ 6000 Кбит/сек
Размер кадра: 720x576
Аудиокодек: АС3
Битрейт аудио:
Audio1: AC3, 6 ch , 448 Кбит/сек
Audio2: AC3, 1 ch, 224 Кбит/сек

DVDInfo:

Title: Муха-Цокотуха. Сборник DVD5
Size: 3.90 Gb ( 4 086 190,00 KBytes ) - DVD-5
Enabled regions: 1, 2, 3, 4, 5, 6, 7, 8
VTS_01 :
Play Length: 00:00:51
Video: PAL 4:3 (720x576) VBR
VTS_02 :
Play Length: 00:09:23
Video: PAL 4:3 (720x576) VBR
Audio:
  • Russian (Dolby AC3, 6 ch)
  • Russian (Dolby AC3, 1 ch)
    VTS_03 :
    Play Length: 00:10:23
    Video: PAL 4:3 (720x576) VBR
    Audio:
  • Russian (Dolby AC3, 6 ch)
  • Russian (Dolby AC3, 1 ch)
    VTS_04 :
    Play Length: 00:15:44
    Video: PAL 4:3 (720x576) VBR
    Audio:
  • Russian (Dolby AC3, 6 ch)
  • Russian (Dolby AC3, 1 ch)
    VTS_05 :
    Play Length: 00:18:31
    Video: PAL 4:3 (720x576) VBR
    Audio:
  • Russian (Dolby AC3, 6 ch)
  • Russian (Dolby AC3, 1 ch)
    VTS_06 :
    Play Length: 00:04:11
    Video: PAL 4:3 (720x576) VBR
    Audio:
  • Russian (Dolby AC3, 6 ch)
  • Russian (Dolby AC3, 1 ch)
    VTS_07 :
    Play Length: 00:09:58
    Video: PAL 4:3 (720x576) VBR
    Audio:
  • Russian (Dolby AC3, 2 ch)
    VTS_08 :
    Play Length: 00:12:00
    Video: PAL 4:3 (720x576) VBR
    Audio:
  • Russian (Dolby AC3, 2 ch)
    VTS_09 :
    Play Length: 00:01:00
    Video: PAL 4:3 (720x576) VBR
    Audio:
  • Russian (Dolby AC3, 2 ch)

MenuDVD:

     

MediaInfo:

Общее
Полное имя : W:\Интересно\!Детские\Муха-Цокотуха. Сборник мультфильмов по сказкам К. И. Чуковского\Муха-Цокотуха. Сборник DVD5\VIDEO_TS\VTS_03_1.VOB
Формат : MPEG-PS
Размер файла : 505 Мбайт
Продолжительность : 10 м.
Общий поток : 6802 Кбит/сек
Видео
Идентификатор : 224 (0xE0)
Формат : MPEG Video
Версия формата : Version 2
Профиль формата : [email protected]
Параметр BVOP формата : Да
Параметр матрицы формата : Выборочная
Параметр GOP формата : M=3, N=12
Продолжительность : 10 м.
Битрейт : 6000 Кбит/сек
Ширина : 720 пикселей
Высота : 576 пикселей
Соотношение сторон : 4:3
Частота кадров : 25,000 кадров/сек
Стандарт вещания : PAL
Цветовое пространство : YUV
Субдискретизация насыщенности : 4:2:0
Битовая глубина : 8 бит
Тип развёртки : Чересстрочная
Порядок развёртки : Верхнее поле первое
Метод сжатия : С потерями
Бит/(Пиксели*Кадры) : 0.579
Временной код первого кадра : 00:00:00:01
Оригинал временного кода : Group of pictures header
Размер потока : 445 Мбайт (88%)
Аудио #1
Идентификатор : 189 (0xBD)-128 (0x80)
Формат : AC-3
Формат/Информация : Audio Coding 3
Расширение режима : CM (complete main)
Параметр Endianness формата : Big
Режим смешивания : DVD-Video
Продолжительность : 10 м.
Вид битрейта : Постоянный
Битрейт : 448 Кбит/сек
Каналы : 6 каналов
Расположение каналов : Front: L C R, Side: L R, LFE
Частота : 48,0 КГц
Битовая глубина : 16 бит
Метод сжатия : С потерями
Задержка видео : -80 мс.
Размер потока : 33,3 Мбайт (7%)
Аудио #2
Идентификатор : 189 (0xBD)-129 (0x81)
Формат : AC-3
Формат/Информация : Audio Coding 3
Расширение режима : CM (complete main)
Параметр Endianness формата : Big
Режим смешивания : DVD-Video
Продолжительность : 10 м.
Вид битрейта : Постоянный
Битрейт : 224 Кбит/сек
Каналы : 1 канал
Расположение каналов : Front: C
Частота : 48,0 КГц
Битовая глубина : 16 бит
Метод сжатия : С потерями
Задержка видео : -80 мс.
Размер потока : 16,6 Мбайт (3%)
Меню
Скриншоты:
         
         
Other forum [Profile] [PM]
Display posts from previous:    
Reply to topic

The time now is: Today 14:01

All times are GMT + 3 Hours



You cannot post new topics in this forum
You cannot reply to topics in this forum
You cannot edit your posts in this forum
You cannot delete your posts in this forum
You cannot vote in polls in this forum
You cannot attach files in this forum
You cannot download files in this forum