Today is a free download without charge Download

3Д Шедевры: San Base - Функция реальности / 3D Masterpieces: San Base – Function of Reality [2013, Релакс, Музыка, Демо, BDrip-AVC] Half OverUnder / Вертикальная анаморфная стереопара

Reply to topic
 
Author
Message

Omen ®

Longevity: 8 years 8 months

Posts: 181087

Торрент-статистика

Post 20-Nov-2013 12:50

[Quote]

3Д Шедевры: San Base - Функция реальности
3D Masterpieces: San Base – Function of Reality

Год выпуска: 2013
Страна: Германия (3D Content Hub)
Жанр: Релакс, Музыка, Демо
Продолжительность: 01:39:15
Перевод: Не требуется-Описание: Первый диск из серии "3Д Шедевры".
Канадский художник San Base является пионером новой формы искусства, которое он называет Динамической Картиной (Dynamic Painting). Это не анимация в традиционном смысле, картина создается в реальном времени и объекты находятся в состоянии постоянной трансформации. Картинка проживает свою собственную жизнь, с перемещающимися и преобразовывающимися объектами, но при этом следует концепции художника. Function of Reality это путешествие по восьми фантастическим мирам. Используя новейшие компьютерные технологии San Base добился экстраординарного качества изображения. Это не просто великолепная аттестация 3D-технологии, это демонстрация новой формы искусства. Данная художественная работа была представлена в Лас-Вегасе на Consumer Electronic Show 2013 в 4K 3D.-Файлы в раздаче (продолжительность, битрейт видео):
1. Time Tombs (13:00, 22.9 Mbps)
2. Snail on the Slope (19:13, 31.0 Mbps)
3. Solaris (10:55, 17.8 Mbps)
4. Hidden Life of Stones (12:48, 18.5 Mbps)
5. Yggdrasil (10:59, 31.7 Mbps)
6. Virtu (15:02, 29.7 Mbps)
7. Function of Reality (10:53, 15.3 Mbps)
8. Zone (06:25, 27.2 Mbps)
В каждом файле по две аудиодороги - обе музыка (разная).
Для желающих, отдельными файлами в релизе восемь пар аудиодорог в DTS-HD MA.-Внимание: Высокий битрейт! У некоторых может вызвать проблемы при воспроизведении.- За эксклюзивный исходный BD 3D спасибо и mebelrus!-Качество: BDRip (by Ash61)
Контейнер: MKV
Формат 3D: Half OverUnder / Вертикальная анаморфная стереопара
Порядок ракурсов: левый ракурс первый
Видео кодек: x264
Аудио кодек: AC3; DTS-HD MA-Видео: AVC / 23,976 fps / 1920х1080p / 15.3 - 31.7 Mbps
Аудио:
Вшитые дорожки:
Музыка #1 - (Dubstep-Functional-Mix by Proventek) / AC3 / 48 KHz / 5.1 ch / 640 Kbps
Музыка #2 - (Deep-Meditational-Mix by San Base) / AC3 / 48 KHz / 5.1 ch / 640 Kbps
Отдельными файлами:
Музыка #1 - (Dubstep-Functional-Mix by Proventek) / DTS-HD MA / 16-bit / 48 KHz / 5.1 ch / 2426 - 3003 Kbps
Музыка #2 - (Deep-Meditational-Mix by San Base) / DTS-HD MA / 16-bit / 48 KHz / 5.1 ch / 1752 - 2313 Kbps
Субтитры: Отсутствуют

MediaInfo первого файла (остальные отличаются только битрейтом видео)

General
Unique ID : 236829277797334637271152956219882874851 (0xB22BA8E774EA6C0CAE24B2A7DD4A27E3)
Complete name : E:\Masterpieces.San Base–FunctionOfReality(2013)3D-halfOU(Ash61)\Masterpieces.SanBase–FunctionOfReality-1.TimeTombs(2013)3D-halfOU(Ash61).mkv
Format : Matroska
Format version : Version 2
File size : 2.24 GiB
Duration : 13mn 0s
Overall bit rate : 24.7 Mbps
Movie name : 3D Masterpieces: San Base – Function of Reality (2013) 3D
Encoded date : UTC 2013-11-16 21:19:44
Writing application : mkvmerge v5.8.0 ('No Sleep / Pillow') built on Sep 2 2012 15:37:04
Writing library : libebml v1.2.3 + libmatroska v1.3.0
Video
ID : 1
Format : AVC
Format/Info : Advanced Video Codec
Format profile : [email protected]
Format settings, CABAC : Yes
Format settings, ReFrames : 4 frames
Codec ID : V_MPEG4/ISO/AVC
Duration : 12mn 59s
Bit rate : 22.9 Mbps
Width : 1 920 pixels
Height : 1 080 pixels
Display aspect ratio : 16:9
Frame rate mode : Constant
Frame rate : 23.976 fps
Color space : YUV
Chroma subsampling : 4:2:0
Bit depth : 8 bits
Scan type : Progressive
Bits/(Pixel*Frame) : 0.461
Stream size : 2.08 GiB (93%)
Title : BDRip by Ash61
Writing library : x264 core 129 r2245 bc13772
Encoding settings : cabac=1 / ref=4 / deblock=1:-1:-1 / analyse=0x3:0x113 / me=umh / subme=10 / psy=1 / psy_rd=1.00:0.15 / mixed_ref=1 / me_range=32 / chroma_me=1 / trellis=2 / 8x8dct=1 / cqm=0 / deadzone=21,11 / fast_pskip=1 / chroma_qp_offset=-3 / threads=12 / lookahead_threads=2 / sliced_threads=0 / nr=0 / decimate=1 / interlaced=0 / bluray_compat=0 / constrained_intra=0 / bframes=6 / b_pyramid=2 / b_adapt=2 / b_bias=0 / direct=3 / weightb=1 / open_gop=0 / weightp=2 / keyint=250 / keyint_min=23 / scenecut=40 / intra_refresh=0 / rc_lookahead=60 / rc=crf / mbtree=1 / crf=18.0 / qcomp=0.70 / qpmin=10 / qpmax=69 / qpstep=4 / vbv_maxrate=40000 / vbv_bufsize=30000 / crf_max=0.0 / nal_hrd=none / frame-packing=4 / ip_ratio=1.40 / aq=1:0.70
Default : Yes
Forced : No
Audio #1
ID : 2
Format : AC-3
Format/Info : Audio Coding 3
Mode extension : CM (complete main)
Format settings, Endianness : Big
Codec ID : A_AC3
Duration : 13mn 0s
Bit rate mode : Constant
Bit rate : 640 Kbps
Channel(s) : 6 channels
Channel positions : Front: L C R, Side: L R, LFE
Sampling rate : 48.0 KHz
Bit depth : 16 bits
Compression mode : Lossy
Stream size : 59.5 MiB (3%)
Title : Music-1
Default : Yes
Forced : No
Audio #2
ID : 3
Format : AC-3
Format/Info : Audio Coding 3
Mode extension : CM (complete main)
Format settings, Endianness : Big
Codec ID : A_AC3
Duration : 13mn 0s
Bit rate mode : Constant
Bit rate : 640 Kbps
Channel(s) : 6 channels
Channel positions : Front: L C R, Side: L R, LFE
Sampling rate : 48.0 KHz
Bit depth : 16 bits
Compression mode : Lossy
Stream size : 59.5 MiB (3%)
Title : Music-2
Default : No
Forced : No

Для оценки 3Д - Анимированные скрины
















О художнике

San Base - канадский художник , родившийся в России. С раннего детства он проявлял склонность к искусству, и в возрасте 12 лет он был принят в Школу Изящных искусств. Вскоре после этого, он обнаружил еще одно своё увлечение - математику. Как поклонник и искусства, и науки, он столкнулся с трудной дилемой - принять предложение Суриковской Академии Изящных искусств (одна из самых известных художественных школ в России) или пойти в технический университет. В конце концов, он выбрал путь в прикладную науку, чтобы получить высшее образование как инженер-кибернетик, но он никогда не отказывался от живописи.
Он переехал в Украину и преуспел в качестве программиста. Между тем, San Base посвятил все свое свободное время живописи и совершенствованию своего мастерства художника. В начале 90-х , Base изобрел концепцию Динамической Картины путем объединения двух своих сильных сторон - навыков программирования и любви к искусству.
Он иммигрировал в Канаду в середине 90-х годов и в течение последнего десятилетия совершенствовал технологии в области Динамической Картины. Теперь, блестящие результаты его гениальной работы могут, наконец, быть увиденными в галереях по всему миру и впервые на 3D Blu-ray.
Оф. сайт - www.sanbasestudio.com
Other forum [Profile] [PM]

DEMYAN

Gender:

Longevity: 7 years 5 months

Posts: 1

Location: Забайкальский край

Торрент-статистика

Post 11-Mar-2014 09:14 (after 3 months 20 days)

[Quote]

Omen, Спасибо за предоставленное видео для которого не жаль свободного места на диске, после просмотра начинаешь понимать как много еще не видел и многое еще не знаешь. У меня тоже есть прекрасное видео в 3D с реальными вылетами из экрана но не могу понять как его здесь выложить.
Other forum [Profile] [PM]
Display posts from previous:    
Reply to topic

The time now is: Today 01:45

All times are GMT + 3 Hours



You cannot post new topics in this forum
You cannot reply to topics in this forum
You cannot edit your posts in this forum
You cannot delete your posts in this forum
You cannot vote in polls in this forum
You cannot attach files in this forum
You cannot download files in this forum