Today is a free download without charge Download

Чебурашка и крокодил Гена. Сборник мультфильмов (1969-1983) BDRip

Reply to topic
 
Author
Message

Delia ®

Gender:

Longevity: 10 years

Posts: 1821

Торрент-статистика

Post 04-Nov-2011 21:13

[Quote]

Чебурашка и крокодил Гена. Сборник мультфильмов Название: Чебурашка и крокодил Гена. Сборник мультфильмов
Год выхода: 1969
Жанр: мультфильм, короткометражка, семейный
Режиссер: Роман Качанов
В ролях: Василий Ливанов, Клара Румянова, Владимир Раутбарт, Владимир Кенигсон, Тамара Дмитриева
Описание:Знаменитая мультипликационная экранизация произведений Эдуарда Успенского.
-Название: Чебурашка
Год выхода: 1972
Жанр: мультфильм, короткометражка, семейный
Режиссер: Роман Качанов
В ролях: Тамара Дмитриева, Василий Ливанов, Клара Румянова, Владимир Ферапонтов
Описание: Приключения доброго крокодила Гены и его друга Чебурашки - неизвестного науке зверя, но зато доброго и милого.
-Название: Шапокляк
Год выхода: 1974
Жанр: мультфильм, короткометражка, семейный
Режиссер: Роман Качанов
В ролях: Василий Ливанов, Ирина Мазинг, Клара Румянова, Владимир Ферапонтов
Описание: Третий фильм из серии картин о приключениях Чебурашки, Крокодила Гены и старухи Шапокляк, в котором они выступают как защитники природы.
-Название: Чебурашка идет в школу
Год выхода: 1983
Жанр: мультфильм, короткометражка, семейный
Режиссер: Роман Качанов
В ролях: Василий Ливанов, Клара Румянова, Георгий Бурков, Юрий Андреев
Описание: Крокодил Гена выясняет, что Чебурашка не умеет читать и хочет устроить его в школу. Им неожиданно помогает старуха Шапокляк, которая устраивает срочное завершение ремонта школы к первому сентября. Крокодил Гена становится преподавателем по живой природе.
-Название: Варежка
Год выхода: 1967
Жанр: мультфильм, короткометражка
Режиссер: Роман Качанов
Описание: О девочке, которой мама не позволяла иметь собаку. И тогда красная шерстяная варежка обратилась в умного веселого щенка, с которым девочка дружила и играла.
-Качество: BDRip
Формат: MKV
Видео кодек: H.264
Аудио кодек: AC3
Видео: English, 2270 Кбит/сек, 720*544 (4:3), в 25,000 кадр/сек, AVC ([email protected])
Аудио: Russian, 448 Кбит/сек, 48,0 КГц, 16 бит, 6 канала(ов), AC-3

MI:

Код:
Общее
Уникальный идентификатор         : 230589110223934944604855418714260515230 (0xAD79D8E39B141FBEBDEBE15EB1A8299E)
Полное имя                       : E:\торрент\Cheburashka.i.krokodil.gena.1967-1983.mkv
Формат                           : Matroska
Размер файла                     : 1,46 Гбайт
Продолжительность                : 1 ч. 16 м.
Общий поток                      : 2720 Кбит/сек
Дата кодирования                 : UTC 2011-11-04 17:02:22
Программа кодирования            : mkvmerge v5.0.1 ('Es ist Sommer') built on Oct  9 2011 11:55:43
Библиотека кодирования           : libebml v1.2.2 + libmatroska v1.3.0
Видео
Идентификатор                    : 1
Формат                           : AVC
Формат/Информация                : Advanced Video Codec
Профиль формата                  : [email protected]
Параметр CABAC формата           : Да
Параметр ReFrames формата        : 8 кадры
Параметры GOP формата            : M=1, N=28
Идентификатор кодека             : V_MPEG4/ISO/AVC
Продолжительность                : 1 ч. 16 м.
Битрейт                          : 2270 Кбит/сек
Ширина                           : 720 пикс.
Высота                           : 544 пикс.
Соотношение сторон               : 4:3
Частота кадров                   : 25,000 кадр/сек
Цветовое пространство            : YUV
Подвыборка цветности             : 4:2:0
Битовая глубина                  : 8 бит
Тип развёртки                    : Прогрессивная
Бит/(Пиксели*Кадры)              : 0.232
Размер потока                    : 1,19 Гбайт (82%)
Библиотека кодирования           : x264 core 119 r2106 07efeb4
Настройки программы              : cabac=1 / ref=8 / deblock=1:-1:-1 / analyse=0x3:0x133 / me=umh / subme=9 / psy=1 / psy_rd=0.80:0.15 / mixed_ref=1 / me_range=32 / chroma_me=1 / trellis=2 / 8x8dct=1 / cqm=0 / deadzone=21,11 / fast_pskip=0 / chroma_qp_offset=-3 / threads=6 / sliced_threads=0 / nr=0 / decimate=0 / interlaced=0 / bluray_compat=0 / constrained_intra=0 / bframes=6 / b_pyramid=2 / b_adapt=2 / b_bias=0 / direct=1 / weightb=1 / open_gop=0 / weightp=2 / keyint=250 / keyint_min=23 / scenecut=40 / intra_refresh=0 / rc_lookahead=60 / rc=2pass / mbtree=1 / bitrate=2270 / ratetol=1.0 / qcomp=0.75 / qpmin=10 / qpmax=51 / qpstep=4 / cplxblur=20.0 / qblur=0.5 / ip_ratio=1.40 / aq=1:0.80
Язык                             : English
Аудио
Идентификатор                    : 2
Формат                           : AC-3
Формат/Информация                : Audio Coding 3
Расширение режима                : CM (complete main)
Идентификатор кодека             : A_AC3
Продолжительность                : 1 ч. 16 м.
Вид битрейта                     : Постоянный
Битрейт                          : 448 Кбит/сек
Канал(ы)                         : 6 канала(ов)
Расположение каналов             : Front: L C R, Side: L R, LFE
Частота                          : 48,0 КГц
Битовая глубина                  : 16 бит
Метод сжатия                     : С потерями
Размер потока                    : 246 Мбайт (16%)
Язык                             : Russian
Меню
00:00:00.000                     : en:Chapter 01
00:19:30.520                     : en:Chapter 02
00:38:31.200                     : en:Chapter 03
00:57:22.160                     : en:Chapter 04
01:06:44.160                     : en:Chapter 05
01:16:37.439                     : en:Chapter 06

Скриншоты

       
   

_________________
Человек – это канат, натянутый между животным и сверхчеловеком, – канат над пропастью.
В человеке ценно то, что он мост, а не цель. Фридрих Ницше
Other forum [Profile] [PM]
Display posts from previous:    
Reply to topic

The time now is: Today 04:08

All times are GMT + 3 Hours



You cannot post new topics in this forum
You cannot reply to topics in this forum
You cannot edit your posts in this forum
You cannot delete your posts in this forum
You cannot vote in polls in this forum
You cannot attach files in this forum
You cannot download files in this forum