Today is a free download without charge Download

All inclusive, или Всё включено (Эдуард Радзюкевич)[2011.,Комедия] BDRip [H.264/720p-LQ]

Reply to topic
 
Author
Message

sashau ®

Gender:

Longevity: 8 years 11 months

Posts: 3497

Торрент-статистика

Post 20-Nov-2013 10:06

[Quote]

All inclusive, или Всё включено - Русское название: All inclusive, или Всё включено
Год выпуска: 2011
Жанр: Комедия
Язык: Русский
Производство: Россия / EGO Production
Описание фильма:
Жизнь Андрея — владельца дорогой и востребованной ветеринарной клиники для домашних животных с Рублевки — определенно удалась. Мало того, он не обделен вниманием и прекрасных хозяек милых зверюшек. Но страстная ночь с женой олигарха Эвелиной меняет все: ревнивый муж Эдик очень доходчиво объясняет, что изменит сладкую жизнь успешного бизнесмена. Единственный выход — это побег из страны. И Андрей уезжает в Турцию по программе «Все включено», не подозревая, что в нее включено намного больше, чем кажется на первый взгляд. За ним по пятам следует австрийский киллер Рудольф, а солнечные пляжи таят самое главное испытание в жизни…
Режиссер: Эдуард Радзюкевич
Актеры: Михаил Беспалов, Федор Добронравов, Роман Мадянов, Эдуард Радзюкевич, Андрей Кайков, Григорий Сиятвинда, Нонна Гришаева, Анна Ардова, Марина Александрова, Мирослава Карпович
Дата мировой премьеры: 1 июля 2011
Дата российской премьеры: 9 июня 2011, «Парадиз»
Дата выхода DVD релиза: 14 июля 2011, «Новый Диск»


Продолжительность: 01:36:36
Качество видео: BDRip-AVC
Видео: MPEG-4 AVC/H.264, 1280x544 (2,35:1), 23,976 fps, 2790 Kbps, 0.167 bit/pixel
Аудио: 48 kHz, AC3 Dolby Digital, 3/2 (L,C,R,l,r) + LFE ch, ~448.00 kbps avg

MI

Общее
Уникальный идентификатор : 209892167264381581632774719268931242566 (0x9DE7C2D11259B321AAC34BD9264C0A46)
Полное имя : Vse.Vklucheno.2011.BDRip.x264.potroks.mkv
Формат : Matroska
Версия формата : Version 2
Размер файла : 2,19 Гбайт
Продолжительность : 1 ч. 36 м.
Общий поток : 3238 Кбит/сек
Название фильма : -=POTROKS=-
Дата кодирования : UTC 2011-09-03 11:34:30
Программа кодирования : mkvmerge v4.9.1 ('Ich will') сборка от Jul 11 2011 23:53:15
Библиотека кодирования : libebml v1.2.1 + libmatroska v1.1.1
Видео
Идентификатор : 1
Формат : AVC
Формат/Информация : Advanced Video Codec
Профиль формата : [url=mailto:[email protected]][email protected][/url]
Параметр CABAC формата : Да
Параметр ReFrames формата : 12 кадров
Идентификатор кодека : V_MPEG4/ISO/AVC
Продолжительность : 1 ч. 36 м.
Битрейт : 2790 Кбит/сек
Ширина : 1280 пикселей
Высота : 544 пикселя
Соотношение сторон : 2,35:1
Режим частоты кадров : Постоянный
Частота кадров : 23,976 кадра/сек
Цветовое пространство : YUV
Субдискретизация насыщенности : 4:2:0
Битовая глубина : 8 бит
Тип развёртки : Прогрессивная
Бит/(Пиксели*Кадры) : 0.167
Размер потока : 1,84 Гбайт (84%)
Библиотека кодирования : x264 core 115 r1937 aa21558
Настройки программы : cabac=1 / ref=12 / deblock=1:-2:-1 / analyse=0x3:0x133 / me=umh / subme=9 / psy=1 / psy_rd=1.00:0.10 / mixed_ref=1 / me_range=32 / chroma_me=1 / trellis=2 / 8x8dct=1 / cqm=0 / deadzone=21,11 / fast_pskip=1 / chroma_qp_offset=-3 / threads=9 / sliced_threads=0 / nr=0 / decimate=1 / interlaced=0 / bluray_compat=0 / constrained_intra=0 / bframes=3 / b_pyramid=2 / b_adapt=2 / b_bias=0 / direct=3 / weightb=1 / open_gop=0 / weightp=2 / keyint=250 / keyint_min=23 / scenecut=40 / intra_refresh=0 / rc_lookahead=60 / rc=2pass / mbtree=1 / bitrate=2790 / ratetol=1.0 / qcomp=0.60 / qpmin=0 / qpmax=69 / qpstep=4 / cplxblur=20.0 / qblur=0.5 / ip_ratio=1.40 / aq=1:1.20
Default : Да
Forced : Нет
Аудио
Идентификатор : 2
Формат : AC-3
Формат/Информация : Audio Coding 3
Расширение режима : CM (complete main)
Параметр Endianness формата : Big
Идентификатор кодека : A_AC3
Продолжительность : 1 ч. 36 м.
Вид битрейта : Постоянный
Битрейт : 448 Кбит/сек
Каналы : 6 каналов
Расположение каналов : Front: L C R, Side: L R, LFE
Частота : 48,0 КГц
Битовая глубина : 16 бит
Метод сжатия : С потерями
Размер потока : 310 Мбайт (14%)
Язык : Russian
Default : Да
Forced : Нет
Скриншоты:
         
         
Other forum [Profile] [PM]
Display posts from previous:    
Reply to topic

The time now is: Today 04:25

All times are GMT + 3 Hours



You cannot post new topics in this forum
You cannot reply to topics in this forum
You cannot edit your posts in this forum
You cannot delete your posts in this forum
You cannot vote in polls in this forum
You cannot attach files in this forum
You cannot download files in this forum