Today is a free download without charge Download

Камо грядеши? / Quo Vadis (Мервин ЛеРой) [1951, драма, мелодрама, история, BDRip-AVC] DUB+MVO+AVO

Reply to topic
 
Author
Message

DED ®

Longevity: 8 years

Posts: 3943

Торрент-статистика

Post 18-Nov-2013 14:16

[Quote]

--Камо грядеши? / Quo Vadis-- Год выхода: 1951
Страна: США
Производство: Metro-Goldwyn-Mayer (MGM)
Жанр: драма, мелодрама, история
Продолжительность: 02:54:27
Перевод: Профессиональный (дублированный) + Профессиональный (многоголосый) + Авторский (одноголосый)-Режиссер: Мервин ЛеРой-В ролях: Роберт Тейлор, Дебора Керр, Лео Генн, Питер Устинов, Патриция Лаффан, Финлэй Карри, Марина Берти, Бадди Баэр, Феликс Эйлмер...-О фильме: Римская империя первого века нашей эры. Военные победы. Кровавые зрелища в амфитеатрах. Гонения на новую веру. Запретная любовь патриция к пленнице-христианке. Пожар в Вечном городе (дело рук одержимого манией величия Нерона). Приговор императору, вынесенный разгневанным народом.-- --Качество: BDRip-AVC
Формат: MKV
Видео кодек: H.264
Аудио кодек: AC3
Видео: 784x576 (1.36:1), 23.976 fps, MPEG-4 AVC, ~2308 kbps avg, 0.213 bit/pixel
Аудио #1: [RUS] 48.0 kHz, AC3 Dolby Digital, 2 (L,R) ch, ~192.00 kbps avg || DUB - "Варус Видео"
Аудио #2: [RUS] 48.0 kHz, AC3 Dolby Digital, 2 (L,R) ch, ~192.00 kbps avg || MVO - "DVD Магия"
Аудио #3: [RUS] 48.0 kHz, AC3 Dolby Digital, 2 (L,R) ch, ~192.00 kbps avg || AVO - А. Михалев
Аудио #4: [ENG] 48.0 kHz, AC3 Dolby Digital, 1 (С) ch, ~192.00 kbps avg || Оригинал
Субтитры: нет
Дополнительно: Сохранены оригинальные чаптеры, как на Blu-Ray.--

Media Info

Общее
Уникальный идентификатор : 217561900613635237336506909171048667092 (0xA3ACE5DDC13BB923BFCEB778421E57D4)
Полное имя : E:Kamo.grjadeshi.1951.x264.BDRip.(AVC).ExKinoRay.mkv
Формат : Matroska
Размер файла : 3,75 Гбайт
Продолжительность : 2 ч. 54 м.
Общий поток : 3078 Кбит/сек
Название фильма : Kamo.grjadeshi.1951.x264.BDRip.(AVC).ExKinoRay
Дата кодирования : UTC 2013-11-15 15:30:48
Программа кодирования : mkvmerge v4.0.0 ('The Stars were mine') сборка от Jun 6 2010 16:18:42
Библиотека кодирования : libebml v1.0.0 + libmatroska v1.0.0
Видео
Идентификатор : 1
Формат : AVC
Формат/Информация : Advanced Video Codec
Профиль формата : [email protected]
Параметр CABAC формата : Да
Параметр ReFrames формата : 8 кадров
Идентификатор кодека : V_MPEG4/ISO/AVC
Продолжительность : 2 ч. 54 м.
Битрейт : 2308 Кбит/сек
Ширина : 784 пикс.
Высота : 576 пикс.
Соотношение сторон : 4:3
Частота кадров : 23,976 кадр/сек
Цветовое пространство : YUV
Подвыборка цветности : 4:2:0
Битовая глубина : 8 бит
Тип развёртки : Прогрессивная
Бит/(Пиксели*Кадры) : 0.213
Размер потока : 2,74 Гбайт (73%)
Библиотека кодирования : x264 core 125 r2208 d9d2288
Настройки программы : cabac=1 / ref=8 / deblock=1:-2:-2 / analyse=0x3:0x133 / me=umh / subme=11 / psy=1 / psy_rd=1.00:0.00 / mixed_ref=1 / me_range=48 / chroma_me=1 / trellis=2 / 8x8dct=1 / cqm=0 / deadzone=21,11 / fast_pskip=0 / chroma_qp_offset=-2 / threads=3 / lookahead_threads=1 / sliced_threads=0 / nr=0 / decimate=0 / interlaced=0 / bluray_compat=0 / constrained_intra=0 / bframes=8 / b_pyramid=2 / b_adapt=2 / b_bias=0 / direct=3 / weightb=1 / open_gop=0 / weightp=2 / keyint=240 / keyint_min=23 / scenecut=40 / intra_refresh=0 / rc=2pass / mbtree=0 / bitrate=2308 / ratetol=1.0 / qcomp=0.60 / qpmin=10 / qpmax=51 / qpstep=4 / cplxblur=20.0 / qblur=0.5 / ip_ratio=1.40 / pb_ratio=1.30 / aq=1:1.00
Язык : English
Аудио #1
Идентификатор : 2
Формат : AC-3
Формат/Информация : Audio Coding 3
Расширение режима : CM (complete main)
Идентификатор кодека : A_AC3
Продолжительность : 2 ч. 54 м.
Вид битрейта : Постоянный
Битрейт : 192 Кбит/сек
Каналы : 2 канала
Расположение каналов : Front: L R
Частота : 48,0 КГц
Битовая глубина : 16 бит
Метод сжатия : С потерями
Размер потока : 240 Мбайт (6%)
Заголовок : Дублированный (Варус Видео)
Язык : Russian
Аудио #2
Идентификатор : 3
Формат : AC-3
Формат/Информация : Audio Coding 3
Расширение режима : CM (complete main)
Идентификатор кодека : A_AC3
Продолжительность : 2 ч. 54 м.
Вид битрейта : Постоянный
Битрейт : 192 Кбит/сек
Каналы : 2 канала
Расположение каналов : Front: L R
Частота : 48,0 КГц
Битовая глубина : 16 бит
Метод сжатия : С потерями
Размер потока : 240 Мбайт (6%)
Заголовок : Профессиональный многоголосый (DVD Магия)
Язык : Russian
Аудио #3
Идентификатор : 4
Формат : AC-3
Формат/Информация : Audio Coding 3
Расширение режима : CM (complete main)
Идентификатор кодека : A_AC3
Продолжительность : 2 ч. 54 м.
Вид битрейта : Постоянный
Битрейт : 192 Кбит/сек
Каналы : 2 канала
Расположение каналов : Front: L R
Частота : 48,0 КГц
Битовая глубина : 16 бит
Метод сжатия : С потерями
Размер потока : 240 Мбайт (6%)
Заголовок : Авторский одноголосый (А.Михалев)
Язык : Russian
Аудио #4
Идентификатор : 5
Формат : AC-3
Формат/Информация : Audio Coding 3
Расширение режима : CM (complete main)
Идентификатор кодека : A_AC3
Продолжительность : 2 ч. 54 м.
Вид битрейта : Постоянный
Битрейт : 192 Кбит/сек
Каналы : 1 канал
Расположение каналов : Front: C
Частота : 48,0 КГц
Битовая глубина : 16 бит
Метод сжатия : С потерями
Размер потока : 240 Мбайт (6%)
Заголовок : Английский
Язык : English
Меню
00:00:00.000 : en:Chapter 01
00:03:16.195 : en:Chapter 02
00:04:37.275 : en:Chapter 03
00:08:10.280 : en:Chapter 04
00:12:46.891 : en:Chapter 05
00:16:39.415 : en:Chapter 06
00:21:13.563 : en:Chapter 07
00:25:10.592 : en:Chapter 08
00:29:45.992 : en:Chapter 09
00:34:55.718 : en:Chapter 10
00:38:13.123 : en:Chapter 11
00:42:39.556 : en:Chapter 12
00:47:59.501 : en:Chapter 13
00:52:12.045 : en:Chapter 14
00:57:00.583 : en:Chapter 15
01:01:27.100 : en:Chapter 16
01:05:17.914 : en:Chapter 17
01:08:34.527 : en:Chapter 18
01:15:12.381 : en:Chapter 19
01:18:12.020 : en:Chapter 20
01:21:48.069 : en:Chapter 21
01:27:11.225 : en:Chapter 22
01:30:14.658 : en:Chapter 23
01:32:11.734 : en:Chapter 24
01:34:29.121 : en:Chapter 25
01:39:57.491 : en:Chapter 26
01:41:54.191 : en:Chapter 27
01:46:12.198 : en:Chapter 28
01:49:59.134 : en:Chapter 29
01:56:57.635 : en:Chapter 30
01:59:22.989 : en:Chapter 31
02:02:57.369 : en:Chapter 32
02:05:56.215 : en:Chapter 33
02:08:25.322 : en:Chapter 34
02:13:39.261 : en:Chapter 35
02:16:19.004 : en:Chapter 36
02:20:08.608 : en:Chapter 37
02:23:23.970 : en:Chapter 38
02:26:07.842 : en:Chapter 39
02:30:24.013 : en:Chapter 40
02:34:55.995 : en:Chapter 41
02:41:44.694 : en:Chapter 42
02:43:48.860 : en:Chapter 43
02:49:00.338 : en:Chapter 44
02:51:03.002 : en:Chapter 45
02:51:53.636 : en:Chapter 46

Скриншоты

       
-- --
Other forum [Profile] [PM]
Display posts from previous:    
Reply to topic

The time now is: Today 20:46

All times are GMT + 3 Hours



You cannot post new topics in this forum
You cannot reply to topics in this forum
You cannot edit your posts in this forum
You cannot delete your posts in this forum
You cannot vote in polls in this forum
You cannot attach files in this forum
You cannot download files in this forum