Today is a free download without charge Download

iГений: Как Стив Джобс изменил мир / iGenius: How Steve Jobs Changed the World [2011 г., Документальный, научно-популярный, HDTVRip, 720p] Discovery Channel

Reply to topic
 
Author
Message

Varius ®

Gender:

Longevity: 10 years

Posts: 2428

Location: Hell

Торрент-статистика

Post 03-Nov-2011 20:14

[Quote]

iГений: Как Стив Джобс изменил мир / iGenius: How Steve Jobs Changed the World
Год выпуска: 2011
Страна: США
Жанр: Документальный, научно-популярный
Продолжительность: 00:42:32
Перевод: Профессиональный (одноголосый)
Русские субтитры: нет
Режиссер: Discovery Channel
Описание: Ведущими передачи станут Адам Сэвидж и Джейми Хайнеман, хорошо знакомые зрителям Discovery Channel по передаче «Разрушители легенд». Они рассказывают малоизвестные факты, связанные с личностью и идеями Стива Джобса, беседуют с людьми, которые знали его лично. Интервью с Ли Фельзенштейном, бывшим членом компьютерного клуба Homebrew. В этот клуб IT-энтузиастов также входили Стив Джобс и Стив Возняк, впоследствии создавшие компанию Apple Computers. Кроме того, Адам и Джейми встретятся с Дэниэлом Коттке, другом Стива Джобса, поехавшим вместе с ним в 1975 году в Индию в поисках духовного просветления.
В программе появятся известные ученые, включая знаменитого физика-теоретика Митио Каку, а также журналисты, музыканты, режиссеры, которые во многом обязаны своим успехом Стиву Джобсу и его инновациям. О том, какое значение для их творчества имели идеи Стива, расскажут Стиви Уандер, Пит Вентц и другие знаменитости.
«Кто-то однажды сказал, что идти по проторенному пути – это разумно, и поэтому прогресс всегда вершат неразумные люди, - говорит Адам Сэвидж. – Стив Джобс был именно таким неразумным человеком. Он не просто предлагал людям то, чего они ждали, он открывал новые пути и способы мышления, создавая иную цифровую реальность, которая объединяла творчество, музыку, общение, медиа, искусство. Прямо или косвенно он изменил каждого из нас».
Качество: HDTVRip 720р
Формат: MKV
Видео кодек: H.264
Аудио кодек: AC3
Видео: 1280x720p (16:9), 29.970 fps, x264 ~5100 kbps, 0.185 bit/pixel
Аудио: Русский 48 kHz, AC3, 2 ch, CBR 192 kbps
Аудио: Английский 48 kHz, AC3, 6 ch, CBR 384 kbps
Доп. информация: за звук большое спасибо z0liCh

MediaInfo

General
Complete name : \iГений.Как Стив Джобс изменил мир.HDTVRip.720p.x264.mkv
Format : Matroska
File size : 1.68 GiB
Duration : 42mn 32s
Overall bit rate : 5 666 Kbps
Encoded date : UTC 2011-10-30 20:17:05
Writing application : mkvmerge v5.0.1 ('Es ist Sommer') built on Oct 9 2011 11:55:43
Writing library : libebml v1.2.2 + libmatroska v1.3.0
Video
ID : 1
Format : AVC
Format/Info : Advanced Video Codec
Format profile : [email protected]
Format settings, CABAC : Yes
Format settings, ReFrames : 6 frames
Muxing mode : Header stripping
Codec ID : V_MPEG4/ISO/AVC
Duration : 42mn 32s
Bit rate : 5 115 Kbps
Width : 1 280 pixels
Height : 720 pixels
Display aspect ratio : 16:9
Frame rate mode : Variable
Frame rate : 29.970 fps
Color space : YUV
Chroma subsampling : 4:2:0
Bit depth : 8 bits
Scan type : Progressive
Bits/(Pixel*Frame) : 0.185
Stream size : 1.48 GiB (88%)
Writing library : x264 core 112
Encoding settings : cabac=1 / ref=6 / deblock=1:-3:-3 / analyse=0x3:0x113 / me=hex / subme=10 / psy=1 / psy_rd=1.00:0.00 / mixed_ref=0 / me_range=16 / chroma_me=1 / trellis=2 / 8x8dct=1 / cqm=0 / deadzone=21,11 / fast_pskip=1 / chroma_qp_offset=-2 / threads=6 / sliced_threads=0 / nr=0 / decimate=1 / interlaced=0 / constrained_intra=0 / bframes=6 / b_pyramid=2 / b_adapt=1 / b_bias=0 / direct=1 / weightb=0 / open_gop=0 / weightp=2 / keyint=300 / keyint_min=29 / scenecut=40 / intra_refresh=0 / rc_lookahead=40 / rc=abr / mbtree=1 / bitrate=5115 / ratetol=1.0 / qcomp=0.60 / qpmin=3 / qpmax=51 / qpstep=4 / ip_ratio=1.40 / aq=1:1.00
Language : English
Color primaries : BT.709-5, BT.1361, IEC 61966-2-4, SMPTE RP177
Transfer characteristics : BT.709-5, BT.1361
Matrix coefficients : BT.709-5, BT.1361, IEC 61966-2-4 709, SMPTE RP177
Audio #1
ID : 2
Format : AC-3
Format/Info : Audio Coding 3
Mode extension : CM (complete main)
Codec ID : A_AC3
Duration : 42mn 32s
Bit rate mode : Constant
Bit rate : 192 Kbps
Channel(s) : 2 channels
Channel positions : Front: L R
Sampling rate : 48.0 KHz
Bit depth : 16 bits
Stream size : 58.4 MiB (3%)
Title : 192 Kbps AC3 Stereo
Language : Russian
Audio #2
ID : 3
Format : AC-3
Format/Info : Audio Coding 3
Mode extension : CM (complete main)
Codec ID : A_AC3
Duration : 42mn 32s
Bit rate mode : Constant
Bit rate : 384 Kbps
Channel(s) : 6 channels
Channel positions : Front: L C R, Side: L R, LFE
Sampling rate : 48.0 KHz
Bit depth : 16 bits
Stream size : 117 MiB (7%)
Language : English

Скриншоты

         

_________________

Создавая "Новую папку", не считайте себя Создателем - это право Вам дано Админом


Other forum [Profile] [PM]

Nugeiro

Gender:

Longevity: 9 years 5 months

Posts: 1981

Location: Украина, Шостка

Торрент-статистика

Post 03-Nov-2011 20:42 (after 28 minutes)

[Quote]

По телику смотрел, интересно.

_________________
Other forum [Profile] [PM]

zhuk.m

Gender:

Longevity: 10 years

Posts: 403

Location: Гондурас

Торрент-статистика

Post 03-Nov-2011 21:33 (after 50 minutes)

[Quote]

имхо :
Это - потрясающий фильм о боге своей собственной виртуальной вселенной. В которую Джобс привёл миллиарды людей из всех уголков нашей планеты.
И после его смерти, как мне кажется - вселенная стала рушиться. Без его идей и напора, без его сокрушающей корпорации энергии эппл просто останется на том же месте и скоро уйдёт.

_________________
Est modus in rebus
Other forum [Profile] [PM]
Display posts from previous:    
Reply to topic

The time now is: Today 13:47

All times are GMT + 3 Hours



You cannot post new topics in this forum
You cannot reply to topics in this forum
You cannot edit your posts in this forum
You cannot delete your posts in this forum
You cannot vote in polls in this forum
You cannot attach files in this forum
You cannot download files in this forum