Today is a free download without charge Download

Музыкальные сказки (Цезарь Оршанский) [1976, Рисованный мультфильм, DVDRip]

Reply to topic
 
Author
Message

Omen ®

Longevity: 7 years 11 months

Posts: 181087

Торрент-статистика

Post 17-Nov-2013 21:58

[Quote]

Музыкальные сказки
Страна: CCCР
Жанр: Рисованный мультфильм
Продолжительность: 00:09:12
Год выпуска: 1976
Русские субтитры: нет
Режиссёр: Цезарь Оршанский
Описание: Мультфильм состоящий из трех историй: "Про жирафа", "Крокодил и петух", "О разбойниках"
Первая часть о нежном жирафе, который просто не выносит жары и засухи, которая цветет буйным цветом последнее время. Друзья пытаются помочь жирафу, и все время поливают его водой, но тому все равно нестерпимо жарко...
Вторая история повествует об страшноватых мутантах –петуха с головой крокодила и крокодила с головой петуха…
Третья история как отец-разбойник учит уму-разуму своего сынишку, объясняя ему «как надо жить»…
Доп. информация: Выпущено:«Киевнаучфильм»
Художник-постановщик:Н.Чурилов
Композитор:В.Гайдай
Директор:И.Мазепа
Качество: DVDRip
Формат: AVI
Видео: 704x528 (1.33:1), 25 fps, XviD MPEG-4 ~2298 kbps avg, 0.25 bit/pixel
Аудио: 48 kHz, AC3 Dolby Digital, 2/0 (L,R) ch, ~256.00 kbps avg
Субтитры: нет

Подробные технические данные

Format : AVIFormat/Info : Audio Video InterleaveFile size : 169 MiBDuration : 9mn 12sOverall bit rate : 2 565 KbpsWriting application : VirtualDubModRus 1.5.10.2 (build 2542/release)Copyright : Rutracker.orgComment : DVDRip by dvdss
VideoID : 0Format : MPEG-4 VisualFormat profile : Advanced [email protected] settings, BVOP : 2Format settings, QPel : NoFormat settings, GMC : No warppointsFormat settings, Matrix : CustomCodec ID : XVIDCodec ID/Hint : XviDDuration : 9mn 12sBit rate : 2 299 KbpsWidth : 704 pixelsHeight : 528 pixelsDisplay aspect ratio : 5:4Original display aspect ratio : 4:3Frame rate : 25.000 fpsColor space : YUVChroma subsampling : 4:2:0Bit depth : 8 bitsScan type : ProgressiveCompression mode : LossyBits/(Pixel*Frame) : 0.247Stream size : 151 MiB (90%)Writing library : XviD 65
AudioID : 1Format : AC-3Format/Info : Audio Coding 3Mode extension : CM (complete main)Format settings, Endianness : BigCodec ID : 2000Duration : 9mn 12sBit rate mode : ConstantBit rate : 256 KbpsChannel(s) : 2 channelsChannel positions : Front: L RSampling rate : 48.0 KHzBit depth : 16 bitsCompression mode : LossyStream size : 16.9 MiB (10%)Alignment : Aligned on interleavesInterleave, duration : 40 ms (1.00 video frame)Interleave, preload duration : 512 ms
Other forum [Profile] [PM]
Similar theme
Forum Topic Author Torrent Replies Last Post
./templates/default/images/folder_dl.gif Фильмы 2011-2020 Фиксики против кработов (Василий Бедошвили, Олег Ужинов, Иван Пшонкин) [2019 г., приключения, музыка, мультфильм, WEB-DLRip] kilmister777
1 | 0

0 | 679

3

2020-02-05 13:57
kilmister777 Latest
./templates/default/images/folder_dl.gif Новинки (HD|DVD|BD|WEB|TV|SAT|PDTV|-Rip) Билл и Тед / Bill & Ted Face the Music (Дин Паризо) [2020 г., комедия, фантастика, музыка, фэнтези, WEB-DLRip]DUB | iTunes kilmister777
1 | 0

0 | 753

0

2020-09-24 10:31
kilmister777 Latest
Display posts from previous:    
Reply to topic

The time now is: Today 04:29

All times are GMT + 3 Hours



You cannot post new topics in this forum
You cannot reply to topics in this forum
You cannot edit your posts in this forum
You cannot delete your posts in this forum
You cannot vote in polls in this forum
You cannot attach files in this forum
You cannot download files in this forum