Today is a free download without charge Download

Кругляшок / Круглячок (Тадеуш Павленко) [1992, рисованный мультфильм, DVB]

Reply to topic
 
Author
Message

Omen ®

Longevity: 7 years 11 months

Posts: 181087

Торрент-статистика

Post 17-Nov-2013 13:42

[Quote]

Кругляшок / Круглячок
Страна: Украина
Жанр: рисованный мультфильм
Год выпуска: 1992
Продолжительность: 00:08:06
Перевод: Профессиональный (дублированный)
Русские субтитры: нет
Режиссёр: Тадеуш Павленко
Описание: мультфильм про девочку, которая примеряв туфельки просто взяла и улетела, здесь и начались приключения ...
Доп. информация: по мотивам украинской народной сказки

Трансляция спутникового канала: "Перец"
Качество видео: DVB
Формат видео: MPEG-PS
Видео: MPEG2 Video, 720x576, 25 fps, 4800 kbps
Аудио: MPEG Audio, 2 сh, 48 kHz, 192 kbps

MediaInfo

D:\Кругляшок. (1992)_DVB by SLuMeP.mpg
General
Complete name : D:\Кругляшок. (1992)_DVB by SLuMeP.mpg
Format : MPEG-PS
File size : 296 MiB
Duration : 8mn 6s
Overall bit rate mode : Variable
Overall bit rate : 5 113 Kbps
Video #224
ID : 224 (0xE0)
Format : MPEG Video
Format version : Version 2
Format profile : [email protected]
Format settings, BVOP : Yes
Format settings, Matrix : Custom
Format settings, GOP : M=2, N=36
Duration : 8mn 6s
Bit rate mode : Variable
Bit rate : 4 819 Kbps
Maximum bit rate : 15.0 Mbps
Width : 720 pixels
Height : 576 pixels
Display aspect ratio : 4:3
Frame rate : 25.000 fps
Standard : PAL
Color space : YUV
Chroma subsampling : 4:2:0
Bit depth : 8 bits
Scan type : Interlaced
Scan order : Top Field First
Compression mode : Lossy
Bits/(Pixel*Frame) : 0.465
Stream size : 279 MiB (94%)
Audio #192
ID : 192 (0xC0)
Format : MPEG Audio
Format version : Version 1
Format profile : Layer 2
Duration : 8mn 6s
Bit rate mode : Constant
Bit rate : 192 Kbps
Channel(s) : 2 channels
Sampling rate : 48.0 KHz
Compression mode : Lossy
Stream size : 11.1 MiB (4%)

Скриншоты

Other forum [Profile] [PM]
Display posts from previous:    
Reply to topic

The time now is: Today 14:27

All times are GMT + 3 Hours



You cannot post new topics in this forum
You cannot reply to topics in this forum
You cannot edit your posts in this forum
You cannot delete your posts in this forum
You cannot vote in polls in this forum
You cannot attach files in this forum
You cannot download files in this forum