Today is a free download without charge Download

Братья Львиное сердце / Bröderna Lejonhjärta[ Олле Хеллбом, Фэнтези, Приключения, Семейный(1977) DVDRip]

Reply to topic
 
Author
Message

Delia ®

Gender:

Longevity: 11 years

Posts: 1821

Торрент-статистика

Post 03-Nov-2011 11:51

[Quote]

Братья Львиное сердцеBröderna Lejonhjärta - Год выпуска: 1977
Страна: Швеция
Жанр: Фэнтези, Приключения, Семейный
Кинокомпания: Artfilm, Svensk Filmindustri (SF)
Продолжительность: 1:41:52
Перевод: Двуголосый закадровый
Язык: русский, шведский
Режиссер: Олле Хеллбом
Продюсер: Олле Хеллбом, Олле Нордемар
Сценарий: Астрид Линдгрен
Художник: Lotta Melanton, П.А. Лунгрен, Гунилла Норлунд
Композитор: Лассе Далберг, Бьёрн Исфельт
Актеры: Стэффан Готесмам Ларс Сёдердал Аллан Эдвалль Гунн Волльгрен Фольке Йорт Пер Оскарссон Томми Джонсон Жан Нюгрен Миша Габэй
Описание фильма:
Что ждёт нас после завершения жизни? Пустота? Облака и арфы? Реинкарнация в бабочку? А может — новый, удивительный мир, наполненный красками, беседами у тёплого костра и приключениями, о которых не смеешь и мечтать?
Девятилетний Карл Лейон по прозвищу Сухарик болеет туберкулезом и знает, что вскоре умрет. Его старший брат Юнатан пытается его как-то утешить и обещает, что однажды они встретятся в волшебной стране Нангияле. Неожиданно Юнатан погибает при пожаре. Вскоре умирает и Сухарик. Они встречаются в Нангияле…

Видеокодек: Xvid
Битрейт видео: ~899 кб/сек
Размер кадра: 720х416
Качество видео: DVDRip
Аудиокодек: MP3
Битрейт аудио#1: Русский CBR 128 кб/сек
Битрейт аудио#2: Шведский CBR 128 кб/сек

Рецензия

Нет мира на земле. Но нет его и выше…
Уже из синопсиса ясно, что рассчитывать на радости «Пеппи Длинныйчулок» или «Карлсона, который живёт на крыше» здесь совсем не приходится. Бессердечные авторы моментально умерщвляют главных героев, отправляя их в пресловутую страну Нянгияле.
Вопреки обещаниям старшего брата, оба оказываются там вместе со своими бренными телами, которые, вроде бы, должны были остаться погребенными в земле, дав свободу передвижения душевной материи.
Такое расхождение с общепринятой версией потустороннего мира можно было бы проглотить, но неожиданно выясняется, что в прекрасной, усаженной вишневыми садами Нянгияле, бушует народно-освободительное движение и в неравной борьбе сошлись вместе светлые и темные силы.
Вот вам: нет мира на земле, но нет его и выше. Или ниже — как вам будет угодно. Только переход от реальности к вымыслу на этот раз получился слишком ненатуральным и потусторонний мир оказался, как это ни удивительно, слишком близок к настоящему, слегка разбавленному антуражем сказочных оттенков.
Доморощенный «Просперо», в заточении ожидающий смерти от Змея Горыныча местного разлива, а наши герои — единственная надежда вернуть вожака недовольным народным массам. Очень все примитивно и просто. Сухо, малозрелищно и технически ущербно. И никакими скидками на давность создания это творение никому не спасти.
Напротив, кино само добивает себя, когда, совершив круг, герои оказываются в начале следующего цикла, который, если верить их мечтам, должен, наконец, стать движением к счастью. Вот только опыт прошлого говорит о том, что, скорее всего, эта новая жизнь вновь окажется кругом ада.
От безысходности хочется бежать, а от этого кино — и подавно.

Mediainfo

Общее
Полное имя : L:\Фильмы\Upload new 18\Братья Львиное сердце.1977.DVDRip.avi
Формат : AVI
Формат/Информация : Audio Video Interleave
Размер файла : 852 Мбайт
Продолжительность : 1 ч. 41 м.
Общий поток : 1169 Кбит/сек
Программа кодирования : VirtualDubMod 1.5.4.1 (build 2178/release)
Библиотека кодирования : VirtualDubMod build 2178/release
Видео
Идентификатор : 0
Формат : MPEG-4 Visual
Параметр BVOP формата : Нет
Параметр QPel формата : Нет
Параметр GMC формата : Без точки перехода
Параметр матрицы формата : Default (H.263)
Идентификатор кодека : XVID
Идентификатор кодека/Подсказка : XviD
Продолжительность : 1 ч. 41 м.
Битрейт : 899 Кбит/сек
Ширина : 720 пикс.
Высота : 416 пикс.
Соотношение сторон : 16:9
Частота кадров : 25,000 кадр/сек
Цветовое пространство : YUV
Подвыборка цветности : 4:2:0
Битовая глубина : 8 бит
Тип развёртки : Прогрессивная
Метод сжатия : С потерями
Бит/(Пиксели*Кадры) : 0.120
Размер потока : 655 Мбайт (77%)
Библиотека кодирования : XviD 0.0.03 (UTC 2002-12-09)
Аудио #1
Идентификатор : 1
Формат : MPEG Audio
Версия формата : Version 1
Профиль формата : Layer 3
Режим : Joint stereo
Расширение режима : MS Stereo
Идентификатор кодека : 55
Идентификатор кодека/Подсказка : MP3
Продолжительность : 1 ч. 41 м.
Вид битрейта : Постоянный
Битрейт : 128 Кбит/сек
Канал(ы) : 2 канала(ов)
Частота : 44,1 КГц
Метод сжатия : С потерями
Размер потока : 93,3 Мбайт (11%)
Выравнивание : Разделение по промежуткам
Продолжительность промежутка : 40 мс. (1,00 видеокадр)
Время предзагрузки промежутка : 500 ms
Аудио #2
Идентификатор : 2
Формат : MPEG Audio
Версия формата : Version 1
Профиль формата : Layer 3
Идентификатор кодека : 55
Идентификатор кодека/Подсказка : MP3
Продолжительность : 1 ч. 41 м.
Вид битрейта : Постоянный
Битрейт : 128 Кбит/сек
Канал(ы) : 2 канала(ов)
Частота : 44,1 КГц
Метод сжатия : С потерями
Задержка видео : 26 мс.
Размер потока : 93,3 Мбайт (11%)
Выравнивание : Разделение по промежуткам
Продолжительность промежутка : 40 мс. (1,00 видеокадр)
Время предзагрузки промежутка : 500 ms
Библиотека кодирования : LAME3.93
--        

_________________
Человек – это канат, натянутый между животным и сверхчеловеком, – канат над пропастью.
В человеке ценно то, что он мост, а не цель. Фридрих Ницше
Other forum [Profile] [PM]
Similar theme
Forum Topic Author Torrent Replies Last Post
./templates/default/images/folder_dl.gif Зарубежное кино Прямо из Бруклина / Выбраться из Бруклина / Straight Out of Brooklyn (Мэтти Рич / Matty Rich) [1991, США, драма, криминал, HDTV 1080i] DVO (НТВ+) + Original Eng Omen
1 | 0

0 | 628

0

2013-10-19 16:34
Omen Latest
Display posts from previous:    
Reply to topic

The time now is: Today 21:53

All times are GMT + 3 Hours



You cannot post new topics in this forum
You cannot reply to topics in this forum
You cannot edit your posts in this forum
You cannot delete your posts in this forum
You cannot vote in polls in this forum
You cannot attach files in this forum
You cannot download files in this forum