Today is a free download without charge Download

Смурфики 2 / The Smurfs 2 (Раджа Госнелл / Raja Gosnell) [2013 г., мультфильм, фэнтези, комедия, семейный, BDRemux 1080p] (Локализованный видеоряд) Dub + Ukr + Eng + Subs (Rus, Ukr, Eng)

Reply to topic
 
Author
Message

Omen ®

Longevity: 8 years

Posts: 181087

Торрент-статистика

Post 15-Nov-2013 20:56

[Quote]

P R E S E N T SСмурфики 2 / The Smurfs 2- Страна: США
Жанр: мультфильм, фэнтези, комедия, семейный
Продолжительность: 01:44:54
Год выпуска: 2013
Перевод: Профессиональный (полное дублирование)
Субтитры: есть-Режиссёр: Раджа Госнелл / Raja Gosnell
Роли озвучивали: Хэнк Азария, Нил Патрик Харрис, Брендан Глисон, Джейма Мейс, Джонатан Уинтерс, Кэти Перри, Кристина Риччи, Дж.Б. Смув, Джордж Лопес, Антон Ельчин, Джон Оливер, Фрэнк Уэлкер, Фред Армизен, Алан Камминг, Джейкоб Тремблэ, Нэнси О'Делл...
Роли дублировали: Сергей Паршин, Нюша Шурочкина- | | -Описание: Гаргамел создаёт Хакуса и Векси, как две капли воды похожую на смурфиков злобную парочку, надеясь всё-таки обрести магическую силу. Когда он узнаёт, что лишь настоящий смурф может дать ему то, что он хочет, и лишь Смурфетта способна превратить Хакуса и Векси в настоящих смурфов, Гаргамел похищает Смурфетту и берёт её с собой в Париж, планируя сделать её своей прислужницей. Но смурфики - Папа, Растяпа, Смельчак, Ворчун, Красавчик, Благоразумник и их друзья из Нью-Йорка этого так не оставят. Тем более что к ним присоединился новорождённый Голубчик...-Доп. информация: BDRemux 1080p (16/9) сделан с Blu-Ray диска The Smurfs 2 2013 CEE BluRay 1080p AVC DTS-HD MA5.1-CHDBits.
Отдельное спасибо xfiles за подготовку субтитров.
-Сэмпл/Sample (184 MB, 1 минута)-Качество: BDRemux 1080p
Формат: MKV
Видео: 1920x1080 (16/9), 23,976 fps, ~23461 kbps avg, 0.472 bit/pixel
Аудио #1: Русский, AC3, 6 ch, 48 kHz, 640 kbps - Дубляж
Аудио #2: Украинский, AC3, 6 ch, 48 kHz, 640 kbps - Дубляж
Аудио #3: English, DTS-HD MA / 5.1 / 48 kHz / 2266 kbps / 16-bit (DTS Core: 5.1 / 48 kHz / 1509 kbps / 16-bit) - Original
Субтитры: Русские (полные), Украинские (форсированные), English (Full)
Навигация по главам: есть (16 не именованных глав)

BDInfo исходного Blu-Ray диска

DISC INFO:
Disc Title: The.Smurfs.2.2013.CEE.BluRay.1080p.AVC.DTS-HD.MA5.1-CHDBitsDisc Size: 36 676 860 601 bytesProtection: AACSBD-Java: YesBDInfo: 0.5.8
PLAYLIST REPORT:
Name: 00003.MPLSLength: 1:44:54.287 (h:m:s.ms)Size: 27 290 406 912 bytesTotal Bitrate: 34,69 Mbps
VIDEO:
Codec Bitrate Description----- ------- -----------MPEG-4 AVC Video 23461 kbps 1080p / 23,976 fps / 16:9 / High Profile 4.1
AUDIO:
Codec Language Bitrate Description----- -------- ------- -----------DTS-HD Master Audio English 2266 kbps 5.1 / 48 kHz / 2266 kbps / 16-bit (DTS Core: 5.1 / 48 kHz / 1509 kbps / 16-bit)Dolby Digital Audio Arabic 640 kbps 5.1 / 48 kHz / 640 kbpsDolby Digital Audio Bulgarian 640 kbps 5.1 / 48 kHz / 640 kbpsDolby Digital Audio Estonian 640 kbps 5.1 / 48 kHz / 640 kbpsDolby Digital Audio Hebrew 640 kbps 5.1 / 48 kHz / 640 kbpsDolby Digital Audio Icelandic 640 kbps 5.1 / 48 kHz / 640 kbpsDolby Digital Audio Latvian 640 kbps 5.1 / 48 kHz / 640 kbpsDolby Digital Audio Lithuanian 640 kbps 5.1 / 48 kHz / 640 kbpsDolby Digital Audio Polish 640 kbps 5.1 / 48 kHz / 640 kbpsDolby Digital Audio Russian 640 kbps 5.1 / 48 kHz / 640 kbpsDolby Digital Audio Ukrainian 640 kbps 5.1 / 48 kHz / 640 kbps
SUBTITLES:
Codec Language Bitrate Description----- -------- ------- -----------Presentation Graphics English 45,009 kbpsPresentation Graphics Arabic 22,052 kbpsPresentation Graphics Bulgarian 41,380 kbpsPresentation Graphics Estonian 0,067 kbpsPresentation Graphics Hebrew 30,273 kbpsPresentation Graphics Icelandic 47,053 kbpsPresentation Graphics Latvian 0,065 kbpsPresentation Graphics Lithuanian 0,064 kbpsPresentation Graphics Polish 41,429 kbpsPresentation Graphics Russian 44,427 kbpsPresentation Graphics Ukrainian 0,068 kbps
FILES:
Name Time In Length Size Total Bitrate---- ------- ------ ---- -------------01039.M2TS 0:00:00.000 0:01:41.017 414 799 872 32 85001024.M2TS 0:01:41.017 0:03:59.322 1 011 929 088 33 82601025.M2TS 0:05:40.339 0:00:41.166 174 913 536 33 99201026.M2TS 0:06:21.506 1:03:47.323 16 315 422 720 34 10301027.M2TS 1:10:08.829 0:00:04.421 17 664 000 31 96301028.M2TS 1:10:13.250 0:25:45.627 6 610 808 832 34 21701029.M2TS 1:35:58.878 0:00:13.221 56 266 752 34 04501030.M2TS 1:36:12.099 0:08:42.188 2 688 602 112 41 190
CHAPTERS:
Number Time In Length Avg Video Rate Max 1-Sec Rate Max 1-Sec Time Max 5-Sec Rate Max 5-Sec Time Max 10Sec Rate Max 10Sec Time Avg Frame Size Max Frame Size Max Frame Time------ ------- ------ -------------- -------------- -------------- -------------- -------------- -------------- -------------- -------------- -------------- --------------1 0:00:00.000 0:05:00.133 22 857 kbps 40 635 kbps 00:00:33.491 31 290 kbps 00:00:55.930 29 480 kbps 00:00:52.927 119 149 bytes 758 473 bytes 00:01:34.0942 0:05:00.133 0:06:12.622 23 519 kbps 38 429 kbps 00:06:07.575 29 856 kbps 00:09:47.378 28 326 kbps 00:09:46.877 122 616 bytes 743 119 bytes 00:09:58.5563 0:11:12.755 0:07:01.337 23 161 kbps 43 091 kbps 00:16:16.600 32 190 kbps 00:15:54.662 30 391 kbps 00:15:53.619 120 748 bytes 665 585 bytes 00:11:35.1524 0:18:14.092 0:05:04.429 22 943 kbps 39 356 kbps 00:18:34.279 28 545 kbps 00:19:11.859 27 521 kbps 00:19:11.984 119 615 bytes 609 953 bytes 00:18:14.9275 0:23:18.522 0:04:36.067 23 134 kbps 36 379 kbps 00:25:00.206 27 117 kbps 00:24:52.824 25 294 kbps 00:24:52.198 120 609 bytes 634 406 bytes 00:26:19.2026 0:27:54.589 0:06:30.890 22 489 kbps 34 425 kbps 00:32:06.090 28 934 kbps 00:27:54.964 26 666 kbps 00:27:54.589 117 249 bytes 741 057 bytes 00:30:58.1067 0:34:25.480 0:06:43.861 22 428 kbps 44 153 kbps 00:37:53.145 27 913 kbps 00:37:31.874 27 023 kbps 00:37:35.211 116 927 bytes 732 647 bytes 00:34:49.5458 0:41:09.341 0:05:01.092 23 163 kbps 33 647 kbps 00:43:54.298 27 699 kbps 00:44:59.405 26 121 kbps 00:44:54.400 120 760 bytes 706 207 bytes 00:42:20.7889 0:46:10.434 0:04:48.663 23 535 kbps 37 575 kbps 00:46:48.513 28 342 kbps 00:46:53.310 26 697 kbps 00:46:48.597 122 700 bytes 773 759 bytes 00:46:49.38910 0:50:59.097 0:05:48.765 22 211 kbps 34 499 kbps 00:55:53.641 25 392 kbps 00:56:07.447 24 821 kbps 00:56:02.567 115 800 bytes 623 728 bytes 00:54:21.04911 0:56:47.862 0:05:46.012 22 421 kbps 34 188 kbps 01:02:22.905 25 899 kbps 01:02:19.444 24 520 kbps 01:02:14.355 116 891 bytes 612 777 bytes 00:57:03.21112 1:02:33.875 0:04:32.897 22 603 kbps 34 446 kbps 01:02:52.768 26 753 kbps 01:02:57.690 25 433 kbps 01:02:52.768 117 844 bytes 666 749 bytes 01:03:06.44913 1:07:06.772 0:07:03.422 22 643 kbps 38 575 kbps 01:08:34.276 27 878 kbps 01:09:27.162 25 761 kbps 01:07:28.127 118 052 bytes 594 329 bytes 01:07:07.56514 1:14:10.195 0:06:55.623 22 748 kbps 32 029 kbps 01:19:25.927 25 212 kbps 01:18:18.610 24 309 kbps 01:18:14.523 118 600 bytes 656 861 bytes 01:15:34.94715 1:21:05.819 0:07:18.771 23 012 kbps 38 736 kbps 01:22:46.836 31 841 kbps 01:27:48.680 30 173 kbps 01:27:46.552 119 972 bytes 675 995 bytes 01:22:47.33716 1:28:24.590 0:16:29.697 26 766 kbps 44 294 kbps 01:36:21.984 33 261 kbps 01:31:16.971 31 047 kbps 01:44:35.143 139 551 bytes 735 022 bytes 01:31:15.678
STREAM DIAGNOSTICS:
File PID Type Codec Language Seconds Bitrate Bytes Packets---- --- ---- ----- -------- -------------- -------------- ------------- -----01039.M2TS 4113 (0x1011) 0x1B AVC 100,892 21 990 277 325 903 1 508 62901039.M2TS 4352 (0x1100) 0x86 DTS-HD MA eng (English) 100,892 2 172 27 388 688 164 55901039.M2TS 4353 (0x1101) 0x81 AC3 ara (Arabic) 100,892 641 8 081 920 47 35501039.M2TS 4354 (0x1102) 0x81 AC3 bul (Bulgarian) 100,892 641 8 081 920 47 35501039.M2TS 4355 (0x1103) 0x81 AC3 est (Estonian) 100,892 641 8 081 920 47 35501039.M2TS 4356 (0x1104) 0x81 AC3 heb (Hebrew) 100,892 641 8 081 920 47 35501039.M2TS 4357 (0x1105) 0x81 AC3 isl (Icelandic) 100,892 641 8 081 920 47 35501039.M2TS 4358 (0x1106) 0x81 AC3 lav (Latvian) 100,892 641 8 081 920 47 35501039.M2TS 4359 (0x1107) 0x81 AC3 lit (Lithuanian) 100,892 641 8 081 920 47 35501039.M2TS 4360 (0x1108) 0x81 AC3 pol (Polish) 100,892 641 8 081 920 47 35501039.M2TS 4361 (0x1109) 0x81 AC3 rus (Russian) 100,892 641 8 081 920 47 35501039.M2TS 4362 (0x110A) 0x81 AC3 ukr (Ukrainian) 100,892 641 8 081 920 47 35501039.M2TS 4608 (0x1200) 0x90 PGS eng (English) 100,892 19 244 454 1 41601039.M2TS 4609 (0x1201) 0x90 PGS ara (Arabic) 100,892 10 131 176 80701039.M2TS 4610 (0x1202) 0x90 PGS bul (Bulgarian) 100,892 19 236 870 1 39001039.M2TS 4611 (0x1203) 0x90 PGS est (Estonian) 100,892 0 70 701039.M2TS 4612 (0x1204) 0x90 PGS heb (Hebrew) 100,892 14 179 828 1 06201039.M2TS 4613 (0x1205) 0x90 PGS isl (Icelandic) 100,892 20 255 264 1 47301039.M2TS 4614 (0x1206) 0x90 PGS lav (Latvian) 100,892 0 70 701039.M2TS 4615 (0x1207) 0x90 PGS lit (Lithuanian) 100,892 0 70 701039.M2TS 4616 (0x1208) 0x90 PGS pol (Polish) 100,892 19 236 268 1 37001039.M2TS 4617 (0x1209) 0x90 PGS rus (Russian) 100,892 22 283 121 1 60701039.M2TS 4618 (0x120A) 0x90 PGS ukr (Ukrainian) 100,892 0 70 701024.M2TS 4113 (0x1011) 0x1B AVC 239,239 22 648 677 286 563 3 684 31301024.M2TS 4352 (0x1100) 0x86 DTS-HD MA eng (English) 239,239 2 251 67 319 940 404 17001024.M2TS 4353 (0x1101) 0x81 AC3 ara (Arabic) 239,239 640 19 146 240 112 18501024.M2TS 4354 (0x1102) 0x81 AC3 bul (Bulgarian) 239,239 640 19 146 240 112 18501024.M2TS 4355 (0x1103) 0x81 AC3 est (Estonian) 239,239 640 19 146 240 112 18501024.M2TS 4356 (0x1104) 0x81 AC3 heb (Hebrew) 239,239 640 19 146 240 112 18501024.M2TS 4357 (0x1105) 0x81 AC3 isl (Icelandic) 239,239 640 19 146 240 112 18501024.M2TS 4358 (0x1106) 0x81 AC3 lav (Latvian) 239,239 640 19 146 240 112 18501024.M2TS 4359 (0x1107) 0x81 AC3 lit (Lithuanian) 239,239 640 19 146 240 112 18501024.M2TS 4360 (0x1108) 0x81 AC3 pol (Polish) 239,239 640 19 146 240 112 18501024.M2TS 4361 (0x1109) 0x81 AC3 rus (Russian) 239,239 640 19 146 240 112 18501024.M2TS 4362 (0x110A) 0x81 AC3 ukr (Ukrainian) 239,239 640 19 146 240 112 18501024.M2TS 4608 (0x1200) 0x90 PGS eng (English) 239,239 46 1 373 580 7 94701024.M2TS 4609 (0x1201) 0x90 PGS ara (Arabic) 239,239 23 684 525 4 20201024.M2TS 4610 (0x1202) 0x90 PGS bul (Bulgarian) 239,239 45 1 348 886 7 82301024.M2TS 4611 (0x1203) 0x90 PGS est (Estonian) 239,239 0 70 701024.M2TS 4612 (0x1204) 0x90 PGS heb (Hebrew) 239,239 31 935 055 5 51501024.M2TS 4613 (0x1205) 0x90 PGS isl (Icelandic) 239,239 49 1 463 697 8 41001024.M2TS 4614 (0x1206) 0x90 PGS lav (Latvian) 239,239 0 70 701024.M2TS 4615 (0x1207) 0x90 PGS lit (Lithuanian) 239,239 0 70 701024.M2TS 4616 (0x1208) 0x90 PGS pol (Polish) 239,239 42 1 263 368 7 32201024.M2TS 4617 (0x1209) 0x90 PGS rus (Russian) 239,239 48 1 443 799 8 30701024.M2TS 4618 (0x120A) 0x90 PGS ukr (Ukrainian) 239,239 0 70 701025.M2TS 4113 (0x1011) 0x1B AVC 41,041 22 886 117 409 959 638 68301025.M2TS 4352 (0x1100) 0x86 DTS-HD MA eng (English) 41,041 2 180 11 181 324 67 62101025.M2TS 4353 (0x1101) 0x81 AC3 ara (Arabic) 41,041 642 3 294 720 19 30501025.M2TS 4354 (0x1102) 0x81 AC3 bul (Bulgarian) 41,041 642 3 294 720 19 30501025.M2TS 4355 (0x1103) 0x81 AC3 est (Estonian) 41,041 642 3 294 720 19 30501025.M2TS 4356 (0x1104) 0x81 AC3 heb (Hebrew) 41,041 642 3 294 720 19 30501025.M2TS 4357 (0x1105) 0x81 AC3 isl (Icelandic) 41,041 642 3 294 720 19 30501025.M2TS 4358 (0x1106) 0x81 AC3 lav (Latvian) 41,041 642 3 294 720 19 30501025.M2TS 4359 (0x1107) 0x81 AC3 lit (Lithuanian) 41,041 642 3 294 720 19 30501025.M2TS 4360 (0x1108) 0x81 AC3 pol (Polish) 41,041 642 3 294 720 19 30501025.M2TS 4361 (0x1109) 0x81 AC3 rus (Russian) 41,041 642 3 294 720 19 30501025.M2TS 4362 (0x110A) 0x81 AC3 ukr (Ukrainian) 41,041 642 3 294 720 19 30501025.M2TS 4608 (0x1200) 0x90 PGS eng (English) 41,041 47 240 294 1 37301025.M2TS 4609 (0x1201) 0x90 PGS ara (Arabic) 41,041 26 135 373 81801025.M2TS 4610 (0x1202) 0x90 PGS bul (Bulgarian) 41,041 53 273 950 1 57101025.M2TS 4611 (0x1203) 0x90 PGS est (Estonian) 41,041 2 11 165 6801025.M2TS 4612 (0x1204) 0x90 PGS heb (Hebrew) 41,041 36 185 358 1 07801025.M2TS 4613 (0x1205) 0x90 PGS isl (Icelandic) 41,041 58 299 025 1 70201025.M2TS 4614 (0x1206) 0x90 PGS lav (Latvian) 41,041 2 9 528 5901025.M2TS 4615 (0x1207) 0x90 PGS lit (Lithuanian) 41,041 1 7 432 4701025.M2TS 4616 (0x1208) 0x90 PGS pol (Polish) 41,041 49 252 407 1 44801025.M2TS 4617 (0x1209) 0x90 PGS rus (Russian) 41,041 54 278 722 1 60501025.M2TS 4618 (0x120A) 0x90 PGS ukr (Ukrainian) 41,041 2 8 939 5601026.M2TS 4113 (0x1011) 0x1B AVC 3827,198 22 900 10 955 137 926 59 592 95601026.M2TS 4352 (0x1100) 0x86 DTS-HD MA eng (English) 3827,198 2 221 1 062 574 416 6 392 88601026.M2TS 4353 (0x1101) 0x81 AC3 ara (Arabic) 3827,198 640 306 186 240 1 794 06001026.M2TS 4354 (0x1102) 0x81 AC3 bul (Bulgarian) 3827,198 640 306 186 240 1 794 06001026.M2TS 4355 (0x1103) 0x81 AC3 est (Estonian) 3827,198 640 306 186 240 1 794 06001026.M2TS 4356 (0x1104) 0x81 AC3 heb (Hebrew) 3827,198 640 306 186 240 1 794 06001026.M2TS 4357 (0x1105) 0x81 AC3 isl (Icelandic) 3827,198 640 306 186 240 1 794 06001026.M2TS 4358 (0x1106) 0x81 AC3 lav (Latvian) 3827,198 640 306 186 240 1 794 06001026.M2TS 4359 (0x1107) 0x81 AC3 lit (Lithuanian) 3827,198 640 306 186 240 1 794 06001026.M2TS 4360 (0x1108) 0x81 AC3 pol (Polish) 3827,198 640 306 186 240 1 794 06001026.M2TS 4361 (0x1109) 0x81 AC3 rus (Russian) 3827,198 640 306 186 240 1 794 06001026.M2TS 4362 (0x110A) 0x81 AC3 ukr (Ukrainian) 3827,198 640 306 186 240 1 794 06001026.M2TS 4608 (0x1200) 0x90 PGS eng (English) 3827,198 53 25 214 473 145 60601026.M2TS 4609 (0x1201) 0x90 PGS ara (Arabic) 3827,198 26 12 314 380 75 79601026.M2TS 4610 (0x1202) 0x90 PGS bul (Bulgarian) 3827,198 48 22 915 344 133 21701026.M2TS 4611 (0x1203) 0x90 PGS est (Estonian) 3827,198 0 70 701026.M2TS 4612 (0x1204) 0x90 PGS heb (Hebrew) 3827,198 36 17 046 593 100 56101026.M2TS 4613 (0x1205) 0x90 PGS isl (Icelandic) 3827,198 55 26 089 987 149 73701026.M2TS 4614 (0x1206) 0x90 PGS lav (Latvian) 3827,198 0 70 701026.M2TS 4615 (0x1207) 0x90 PGS lit (Lithuanian) 3827,198 0 70 701026.M2TS 4616 (0x1208) 0x90 PGS pol (Polish) 3827,198 48 22 943 422 132 65501026.M2TS 4617 (0x1209) 0x90 PGS rus (Russian) 3827,198 52 24 733 960 143 17401026.M2TS 4618 (0x120A) 0x90 PGS ukr (Ukrainian) 3827,198 0 70 701027.M2TS 4113 (0x1011) 0x1B AVC 4,338 20 273 10 992 232 59 80201027.M2TS 4352 (0x1100) 0x86 DTS-HD MA eng (English) 4,338 2 885 1 564 084 9 31701027.M2TS 4353 (0x1101) 0x81 AC3 ara (Arabic) 4,338 656 355 840 2 08501027.M2TS 4354 (0x1102) 0x81 AC3 bul (Bulgarian) 4,338 656 355 840 2 08501027.M2TS 4355 (0x1103) 0x81 AC3 est (Estonian) 4,338 656 355 840 2 08501027.M2TS 4356 (0x1104) 0x81 AC3 heb (Hebrew) 4,338 656 355 840 2 08501027.M2TS 4357 (0x1105) 0x81 AC3 isl (Icelandic) 4,338 656 355 840 2 08501027.M2TS 4358 (0x1106) 0x81 AC3 lav (Latvian) 4,338 656 355 840 2 08501027.M2TS 4359 (0x1107) 0x81 AC3 lit (Lithuanian) 4,338 656 355 840 2 08501027.M2TS 4360 (0x1108) 0x81 AC3 pol (Polish) 4,338 656 355 840 2 08501027.M2TS 4361 (0x1109) 0x81 AC3 rus (Russian) 4,338 656 355 840 2 08501027.M2TS 4362 (0x110A) 0x81 AC3 ukr (Ukrainian) 4,338 656 355 840 2 08501027.M2TS 4608 (0x1200) 0x90 PGS eng (English) 4,338 0 70 701027.M2TS 4609 (0x1201) 0x90 PGS ara (Arabic) 4,338 26 14 120 9101027.M2TS 4610 (0x1202) 0x90 PGS bul (Bulgarian) 4,338 67 36 401 21201027.M2TS 4611 (0x1203) 0x90 PGS est (Estonian) 4,338 51 27 385 16301027.M2TS 4612 (0x1204) 0x90 PGS heb (Hebrew) 4,338 49 26 460 15701027.M2TS 4613 (0x1205) 0x90 PGS isl (Icelandic) 4,338 62 33 845 19701027.M2TS 4614 (0x1206) 0x90 PGS lav (Latvian) 4,338 70 37 790 21901027.M2TS 4615 (0x1207) 0x90 PGS lit (Lithuanian) 4,338 61 32 972 19301027.M2TS 4616 (0x1208) 0x90 PGS pol (Polish) 4,338 68 36 681 21201027.M2TS 4617 (0x1209) 0x90 PGS rus (Russian) 4,338 61 32 827 19301027.M2TS 4618 (0x120A) 0x90 PGS ukr (Ukrainian) 4,338 61 33 117 19401028.M2TS 4113 (0x1011) 0x1B AVC 1545,544 23 016 4 446 488 054 24 187 48401028.M2TS 4352 (0x1100) 0x86 DTS-HD MA eng (English) 1545,544 2 282 440 908 684 2 644 89701028.M2TS 4353 (0x1101) 0x81 AC3 ara (Arabic) 1545,544 640 123 650 560 724 51501028.M2TS 4354 (0x1102) 0x81 AC3 bul (Bulgarian) 1545,544 640 123 650 560 724 51501028.M2TS 4355 (0x1103) 0x81 AC3 est (Estonian) 1545,544 640 123 650 560 724 51501028.M2TS 4356 (0x1104) 0x81 AC3 heb (Hebrew) 1545,544 640 123 650 560 724 51501028.M2TS 4357 (0x1105) 0x81 AC3 isl (Icelandic) 1545,544 640 123 650 560 724 51501028.M2TS 4358 (0x1106) 0x81 AC3 lav (Latvian) 1545,544 640 123 650 560 724 51501028.M2TS 4359 (0x1107) 0x81 AC3 lit (Lithuanian) 1545,544 640 123 650 560 724 51501028.M2TS 4360 (0x1108) 0x81 AC3 pol (Polish) 1545,544 640 123 650 560 724 51501028.M2TS 4361 (0x1109) 0x81 AC3 rus (Russian) 1545,544 640 123 650 560 724 51501028.M2TS 4362 (0x110A) 0x81 AC3 ukr (Ukrainian) 1545,544 640 123 650 560 724 51501028.M2TS 4608 (0x1200) 0x90 PGS eng (English) 1545,544 42 8 020 654 46 78601028.M2TS 4609 (0x1201) 0x90 PGS ara (Arabic) 1545,544 20 3 920 195 24 30801028.M2TS 4610 (0x1202) 0x90 PGS bul (Bulgarian) 1545,544 39 7 447 485 43 69001028.M2TS 4611 (0x1203) 0x90 PGS est (Estonian) 1545,544 0 70 701028.M2TS 4612 (0x1204) 0x90 PGS heb (Hebrew) 1545,544 27 5 241 461 31 34201028.M2TS 4613 (0x1205) 0x90 PGS isl (Icelandic) 1545,544 44 8 552 236 49 41501028.M2TS 4614 (0x1206) 0x90 PGS lav (Latvian) 1545,544 0 70 701028.M2TS 4615 (0x1207) 0x90 PGS lit (Lithuanian) 1545,544 0 70 701028.M2TS 4616 (0x1208) 0x90 PGS pol (Polish) 1545,544 39 7 574 102 44 10601028.M2TS 4617 (0x1209) 0x90 PGS rus (Russian) 1545,544 41 7 891 500 45 85001028.M2TS 4618 (0x120A) 0x90 PGS ukr (Ukrainian) 1545,544 0 70 701029.M2TS 4113 (0x1011) 0x1B AVC 13,138 22 447 36 864 610 200 53601029.M2TS 4352 (0x1100) 0x86 DTS-HD MA eng (English) 13,138 2 732 4 485 872 26 50401029.M2TS 4353 (0x1101) 0x81 AC3 ara (Arabic) 13,138 645 1 059 840 6 21001029.M2TS 4354 (0x1102) 0x81 AC3 bul (Bulgarian) 13,138 645 1 059 840 6 21001029.M2TS 4355 (0x1103) 0x81 AC3 est (Estonian) 13,138 645 1 059 840 6 21001029.M2TS 4356 (0x1104) 0x81 AC3 heb (Hebrew) 13,138 645 1 059 840 6 21001029.M2TS 4357 (0x1105) 0x81 AC3 isl (Icelandic) 13,138 645 1 059 840 6 21001029.M2TS 4358 (0x1106) 0x81 AC3 lav (Latvian) 13,138 645 1 059 840 6 21001029.M2TS 4359 (0x1107) 0x81 AC3 lit (Lithuanian) 13,138 645 1 059 840 6 21001029.M2TS 4360 (0x1108) 0x81 AC3 pol (Polish) 13,138 645 1 059 840 6 21001029.M2TS 4361 (0x1109) 0x81 AC3 rus (Russian) 13,138 645 1 059 840 6 21001029.M2TS 4362 (0x110A) 0x81 AC3 ukr (Ukrainian) 13,138 645 1 059 840 6 21001029.M2TS 4608 (0x1200) 0x90 PGS eng (English) 13,138 55 90 316 51101029.M2TS 4609 (0x1201) 0x90 PGS ara (Arabic) 13,138 28 46 093 27901029.M2TS 4610 (0x1202) 0x90 PGS bul (Bulgarian) 13,138 53 87 216 50201029.M2TS 4611 (0x1203) 0x90 PGS est (Estonian) 13,138 8 13 651 8101029.M2TS 4612 (0x1204) 0x90 PGS heb (Hebrew) 13,138 30 48 688 29001029.M2TS 4613 (0x1205) 0x90 PGS isl (Icelandic) 13,138 61 99 972 56901029.M2TS 4614 (0x1206) 0x90 PGS lav (Latvian) 13,138 2 3 686 2701029.M2TS 4615 (0x1207) 0x90 PGS lit (Lithuanian) 13,138 6 9 381 5801029.M2TS 4616 (0x1208) 0x90 PGS pol (Polish) 13,138 46 75 938 43701029.M2TS 4617 (0x1209) 0x90 PGS rus (Russian) 13,138 50 82 383 48301029.M2TS 4618 (0x120A) 0x90 PGS ukr (Ukrainian) 13,138 7 11 055 6701030.M2TS 4113 (0x1011) 0x1B AVC 522,063 29 689 1 937 439 962 10 536 90801030.M2TS 4352 (0x1100) 0x86 DTS-HD MA eng (English) 522,063 2 560 167 062 164 987 59001030.M2TS 4353 (0x1101) 0x81 AC3 ara (Arabic) 522,063 640 41 776 640 244 78501030.M2TS 4354 (0x1102) 0x81 AC3 bul (Bulgarian) 522,063 640 41 776 640 244 78501030.M2TS 4355 (0x1103) 0x81 AC3 est (Estonian) 522,063 640 41 776 640 244 78501030.M2TS 4356 (0x1104) 0x81 AC3 heb (Hebrew) 522,063 640 41 776 640 244 78501030.M2TS 4357 (0x1105) 0x81 AC3 isl (Icelandic) 522,063 640 41 776 640 244 78501030.M2TS 4358 (0x1106) 0x81 AC3 lav (Latvian) 522,063 640 41 776 640 244 78501030.M2TS 4359 (0x1107) 0x81 AC3 lit (Lithuanian) 522,063 640 41 776 640 244 78501030.M2TS 4360 (0x1108) 0x81 AC3 pol (Polish) 522,063 640 41 776 640 244 78501030.M2TS 4361 (0x1109) 0x81 AC3 rus (Russian) 522,063 640 41 776 640 244 78501030.M2TS 4362 (0x110A) 0x81 AC3 ukr (Ukrainian) 522,063 640 41 776 640 244 78501030.M2TS 4608 (0x1200) 0x90 PGS eng (English) 522,063 4 228 902 1 29201030.M2TS 4609 (0x1201) 0x90 PGS ara (Arabic) 522,063 2 104 366 62301030.M2TS 4610 (0x1202) 0x90 PGS bul (Bulgarian) 522,063 3 210 935 1 19501030.M2TS 4611 (0x1203) 0x90 PGS est (Estonian) 522,063 0 70 701030.M2TS 4612 (0x1204) 0x90 PGS heb (Hebrew) 522,063 2 154 637 89201030.M2TS 4613 (0x1205) 0x90 PGS isl (Icelandic) 522,063 3 226 496 1 27601030.M2TS 4614 (0x1206) 0x90 PGS lav (Latvian) 522,063 0 70 701030.M2TS 4615 (0x1207) 0x90 PGS lit (Lithuanian) 522,063 0 70 701030.M2TS 4616 (0x1208) 0x90 PGS pol (Polish) 522,063 3 213 807 1 21201030.M2TS 4617 (0x1209) 0x90 PGS rus (Russian) 522,063 3 208 221 1 20201030.M2TS 4618 (0x120A) 0x90 PGS ukr (Ukrainian) 522,063 0 70 7
[/code]
QUICK SUMMARY:
Disc Title: The.Smurfs.2.2013.CEE.BluRay.1080p.AVC.DTS-HD.MA5.1-CHDBitsDisc Size: 36 676 860 601 bytesProtection: AACSBD-Java: YesPlaylist: 00003.MPLSSize: 27 290 406 912 bytesLength: 1:44:54.287Total Bitrate: 34,69 MbpsVideo: MPEG-4 AVC Video / 23461 kbps / 1080p / 23,976 fps / 16:9 / High Profile 4.1Audio: English / DTS-HD Master Audio / 5.1 / 48 kHz / 2266 kbps / 16-bit (DTS Core: 5.1 / 48 kHz / 1509 kbps / 16-bit)Audio: Arabic / Dolby Digital Audio / 5.1 / 48 kHz / 640 kbpsAudio: Bulgarian / Dolby Digital Audio / 5.1 / 48 kHz / 640 kbpsAudio: Estonian / Dolby Digital Audio / 5.1 / 48 kHz / 640 kbpsAudio: Hebrew / Dolby Digital Audio / 5.1 / 48 kHz / 640 kbpsAudio: Icelandic / Dolby Digital Audio / 5.1 / 48 kHz / 640 kbpsAudio: Latvian / Dolby Digital Audio / 5.1 / 48 kHz / 640 kbpsAudio: Lithuanian / Dolby Digital Audio / 5.1 / 48 kHz / 640 kbpsAudio: Polish / Dolby Digital Audio / 5.1 / 48 kHz / 640 kbpsAudio: Russian / Dolby Digital Audio / 5.1 / 48 kHz / 640 kbpsAudio: Ukrainian / Dolby Digital Audio / 5.1 / 48 kHz / 640 kbpsSubtitle: English / 45,009 kbpsSubtitle: Arabic / 22,052 kbpsSubtitle: Bulgarian / 41,380 kbpsSubtitle: Estonian / 0,067 kbpsSubtitle: Hebrew / 30,273 kbpsSubtitle: Icelandic / 47,053 kbpsSubtitle: Latvian / 0,065 kbpsSubtitle: Lithuanian / 0,064 kbpsSubtitle: Polish / 41,429 kbpsSubtitle: Russian / 44,427 kbpsSubtitle: Ukrainian / 0,068 kbps

MediaInfo

GeneralUnique ID : 219011200124528259508769392488396873688 (0xA4C405D957250445A0816CD1220FDFD8)Complete name : The.Smurfs.II.2013.BDRemux.1080p.dfcbit.mkvFormat : MatroskaFormat version : Version 2File size : 19.8 GiBDuration : 1h 44mnOverall bit rate mode : VariableOverall bit rate : 27.0 MbpsEncoded date : UTC 2013-11-15 13:01:45Writing application : mkvmerge v4.0.0 ('The Stars were mine') built on Jun 6 2010 16:18:42Writing library : libebml v1.0.0 + libmatroska v1.0.0
VideoID : 1Format : AVCFormat/Info : Advanced Video CodecFormat profile : [email protected] settings, CABAC : YesFormat settings, ReFrames : 2 framesCodec ID : V_MPEG4/ISO/AVCDuration : 1h 44mnBit rate mode : VariableBit rate : 22.9 MbpsWidth : 1 920 pixelsHeight : 1 080 pixelsDisplay aspect ratio : 16:9Frame rate mode : ConstantFrame rate : 23.976 fpsColor space : YUVChroma subsampling : 4:2:0Bit depth : 8 bitsScan type : ProgressiveTitle : NTSC, 1920x1080 (16/9), Untached ~23461 kbps avg, BDRemux 1080p - tRuAVC & Multfilmy [DFCbit]Language : RussianDefault : YesForced : No
Audio #1ID : 2Format : AC-3Format/Info : Audio Coding 3Mode extension : CM (complete main)Format settings, Endianness : BigCodec ID : A_AC3Duration : 1h 44mnBit rate mode : ConstantBit rate : 640 KbpsChannel(s) : 6 channelsChannel positions : Front: L C R, Side: L R, LFESampling rate : 48.0 KHzBit depth : 16 bitsCompression mode : LossyStream size : 480 MiB (2%)Title : AC3, 6 ch, 48 kHz, 640 kbps - ДубляжLanguage : RussianDefault : YesForced : No
Audio #2ID : 3Format : AC-3Format/Info : Audio Coding 3Mode extension : CM (complete main)Format settings, Endianness : BigCodec ID : A_AC3Duration : 1h 44mnBit rate mode : ConstantBit rate : 640 KbpsChannel(s) : 6 channelsChannel positions : Front: L C R, Side: L R, LFESampling rate : 48.0 KHzBit depth : 16 bitsCompression mode : LossyStream size : 480 MiB (2%)Title : AC3, 6 ch, 48 kHz, 640 kbps - ДубляжLanguage : UkrainianDefault : NoForced : No
Audio #3ID : 4Format : DTSFormat/Info : Digital Theater SystemsFormat profile : MA / CoreMode : 16Format settings, Endianness : BigCodec ID : A_DTSDuration : 1h 44mnBit rate mode : VariableBit rate : 2 266 Kbps / 1 509 KbpsChannel(s) : 6 channelsChannel positions : Front: L C R, Side: L R, LFESampling rate : 48.0 KHzBit depth : 16 bitsCompression mode : Lossless / LossyTitle : DTS-HD MA / 5.1 / 48 kHz / 2266 kbps / 16-bit (DTS Core: 5.1 / 48 kHz / 1509 kbps / 16-bit) - OriginalLanguage : EnglishDefault : NoForced : No
Text #1ID : 5Format : UTF-8Codec ID : S_TEXT/UTF8Codec ID/Info : UTF-8 Plain TextTitle : SRT, FullLanguage : RussianDefault : NoForced : No
Text #2ID : 6Format : UTF-8Codec ID : S_TEXT/UTF8Codec ID/Info : UTF-8 Plain TextTitle : SRT, ForcedLanguage : UkrainianDefault : NoForced : No
Text #3ID : 7Format : UTF-8Codec ID : S_TEXT/UTF8Codec ID/Info : UTF-8 Plain TextTitle : SRT, FullLanguage : EnglishDefault : NoForced : No
Menu00:00:00.000 : en:Chapter 100:05:00.133 : en:Chapter 200:11:12.755 : en:Chapter 300:18:14.093 : en:Chapter 400:23:18.522 : en:Chapter 500:27:54.590 : en:Chapter 600:34:25.480 : en:Chapter 700:41:09.342 : en:Chapter 800:46:10.434 : en:Chapter 900:50:59.098 : en:Chapter 1000:56:47.863 : en:Chapter 1101:02:33.875 : en:Chapter 1201:07:06.773 : en:Chapter 1301:14:10.196 : en:Chapter 1401:21:05.819 : en:Chapter 1501:28:24.591 : en:Chapter 16

Скриншоты

Локализация (все, что есть)
--BDRemux 1080p

Other forum [Profile] [PM]

Dracula

Longevity: 7 years 1 month

Posts: 11396

Торрент-статистика

Post 01-Jan-2014 17:15 (after 1 month 16 days)

Топик был перенесен из форума Мультфильмы (HD) в форум Мультфильмы


Delia
 
Display posts from previous:    
Reply to topic

The time now is: Today 00:32

All times are GMT + 3 Hours



You cannot post new topics in this forum
You cannot reply to topics in this forum
You cannot edit your posts in this forum
You cannot delete your posts in this forum
You cannot vote in polls in this forum
You cannot attach files in this forum
You cannot download files in this forum