Today is a free download without charge Download

Джиа / Gia (Майкл Кристофер / Michael Cristofer) [1998 г., драма, BDRemux 1080p] [UNRATED]

Reply to topic
 
Author
Message

Delia ®

Gender:

Longevity: 10 years

Posts: 1821

Торрент-статистика

Post 01-Nov-2011 18:42

[Quote]

Джиа / Gia / Unrated Edition- Страна: США
Жанр: драма, биография
Год выпуска: 1998
Продолжительность: 02:05:08
Перевод: Профессиональный (двухголосый) 2 варианта
Cубтитры: русские, английские
Режиссер: Майкл Кристофер
В ролях: Анджелина Джоли, Элизабет Митчелл, Эрик Майкл Коул, Кайли Тревис, Мерседес Руэл, Фей Данауэй
Описание: История взлета и падения Джии Каранджи, сумевшей в одночасье перевернуть представление о том, как должна себя вести фотомодель на подиуме. Джиа Мария Каранджи родилась в Филадельфии в 1960 году. Выросшая в неблагополучной семье, Джиа в 18 лет отправляется в Нью-Йорк конца 70-х годов, чтобы сделать головокружительную карьеру в модельном бизнесе. Менее чем за 10 лет она прошла путь от начинающей звездочки до супермодели, которую все жаждут заполучить на свои показы. И хотя Джию везде преследовал призрак секса, для красотки он мало что значил. Единственной и незаменимой возлюбленной для нее стала визажистка Линда. Однако прочности их любовного союза мешал не только бешеный темперамент Джии, но и банальные злоупотребления наркотиками. В результате Джиа Каранджи в возрасте 26 лет стала одной из первых жертв СПИДа.
Первая половина фильма - взлет - смотрится легко и красиво, не шокирует даже ее странное отношение к сексу. А вот вторая половина - серьезное испытание для нервов. Падение есть падение, сыграно очень убедительно.

Доп. информация: РЕЛИЗ ГРУППЫ
Качество: BDRemux
Формат: MKV
Видео: MPEG-4 AVC Video 18998 kbps 1080p / 23.976 fps / 16:9 / High Profile 4.1
Аудио: Dolby Digital Audio Russian 2.0 / 48 kHz / 192 kbps [#1] vhs
Аудио: Dolby Digital Audio Russian 2.0 / 48 kHz / 192 kbps [#2]
Аудио: DTS-HD Master Audio English 5.1 / 48 kHz / 2035 kbps / 16-bit (DTS Core: 5.1 / 48 kHz / 1509 kbps / 16-bit)
Цитата:
Вторая русская дорога взята с двд
Обе русские дороги от иных версий фильма, в каждой не хватало сцен, однако то что не было в одной, было в другой. Недостающие русские реплики компенсированы между дорогами.

Доп. информация:

«Джиа» (англ. Gia) — биографическая драма, повествующая о жизни и смерти знаменитой манекенщицы Джиа Каранджи. Фильм был снят для американского телевидения, что помешало исполнительнице главной роли Анджелине Джоли претендовать на главную кинонаграду «Оскар». Тем не менее, Джоли и Фэй Данауэй получили за свою игру в картине вторую по престижности американскую кинонаграду «Золотой глобус».
Интересные факты:
* Анджелина Джоли очень долго отклоняла роль Джиа, ссылаясь на то, что по её словам, жизнь Джиа была слишком похожа на её собственную.
* Это альтернативная версия картины, где остались откровенные сцены секса между Джиа и её любовницей Линдой.
Награды: Фильм получил два Золотых глобуса, а также 7 других наград и 12 номинаций различных кинофестивалей.

MI

General
Unique ID : 224502287111021504534076913743225757746 (0xA8E59156F412753996A5501259E92032)
Complete name : J:\Gia.1998.1080p.Bluray.Unrated.AVC.Remux.mkv
Format : Matroska
Format version : Version 2
File size : 18.7 GiB
Duration : 2h 5mn
Overall bit rate : 21.4 Mbps
Movie name : Gia.1998.1080p.Bluray.Unrated.AVC.Remux
Encoded date : UTC 2011-10-31 03:47:48
Writing application : mkvmerge v4.9.1 ('Ich will') сборка от Jul 11 2011 23:53:15
Writing library : libebml v1.2.1 + libmatroska v1.1.1
Video
ID : 1
Format : AVC
Format/Info : Advanced Video Codec
Format profile : [email protected]
Format settings, CABAC : Yes
Format settings, ReFrames : 4 frames
Codec ID : V_MPEG4/ISO/AVC
Duration : 2h 5mn
Bit rate mode : Variable
Bit rate : 19.0 Mbps
Maximum bit rate : 39.0 Mbps
Width : 1 920 pixels
Height : 1 080 pixels
Display aspect ratio : 16:9
Frame rate : 23.976 fps
Color space : YUV
Chroma subsampling : 4:2:0
Bit depth : 8 bits
Scan type : Progressive
Bits/(Pixel*Frame) : 0.383
Stream size : 16.6 GiB (89%)
Title : uralmix
Color primaries : BT.709-5, BT.1361, IEC 61966-2-4, SMPTE RP177
Transfer characteristics : BT.709-5, BT.1361
Matrix coefficients : BT.709-5, BT.1361, IEC 61966-2-4 709, SMPTE RP177
Audio #1
ID : 2
Format : AC-3
Format/Info : Audio Coding 3
Mode extension : CM (complete main)
Codec ID : A_AC3
Duration : 2h 5mn
Bit rate mode : Constant
Bit rate : 192 Kbps
Channel(s) : 2 channels
Channel positions : Front: L R
Sampling rate : 48.0 KHz
Bit depth : 16 bits
Compression mode : Lossy
Stream size : 172 MiB (1%)
Title : MVO
Language : Russian
Audio #2
ID : 3
Format : AC-3
Format/Info : Audio Coding 3
Mode extension : CM (complete main)
Codec ID : A_AC3
Duration : 2h 5mn
Bit rate mode : Constant
Bit rate : 192 Kbps
Channel(s) : 2 channels
Channel positions : Front: L R
Sampling rate : 48.0 KHz
Bit depth : 16 bits
Compression mode : Lossy
Stream size : 172 MiB (1%)
Title : DVO
Language : Russian
Audio #3
ID : 4
Format : DTS
Format/Info : Digital Theater Systems
Format profile : MA / Core
Codec ID : A_DTS
Duration : 2h 5mn
Bit rate mode : Variable
Bit rate : 1 561 Kbps / 1 510 Kbps
Channel(s) : 6 channels
Channel positions : Front: L C R, Side: L R, LFE
Sampling rate : 48.0 KHz
Bit depth : 16 bits
Compression mode : Lossless / Lossy
Language : English
Text #1
ID : 5
Format : UTF-8
Codec ID : S_TEXT/UTF8
Codec ID/Info : UTF-8 Plain Text
Language : Russian
Text #2
ID : 6
Format : UTF-8
Codec ID : S_TEXT/UTF8
Codec ID/Info : UTF-8 Plain Text
Title : SRT
Language : English
Text #3
ID : 7
Format : PGS
Muxing mode : zlib
Codec ID : S_HDMV/PGS
Codec ID/Info : The same subtitle format used on BDs/HD-DVDs
Title : PGS
Language : English

Скриншоты

       [imgs][/imgs]

_________________
Человек – это канат, натянутый между животным и сверхчеловеком, – канат над пропастью.
В человеке ценно то, что он мост, а не цель. Фридрих Ницше
Other forum [Profile] [PM]
Display posts from previous:    
Reply to topic

The time now is: Today 03:04

All times are GMT + 3 Hours



You cannot post new topics in this forum
You cannot reply to topics in this forum
You cannot edit your posts in this forum
You cannot delete your posts in this forum
You cannot vote in polls in this forum
You cannot attach files in this forum
You cannot download files in this forum