Today is a free download without charge Download

Мельница и крест / The Mill and the Cross (Лех Маевский / Lech Majewski) [2011, Швеция, Польша, драма, история, DVD9] R5 «Новый Диск», «Ruscico»

Reply to topic
 
Author
Message

voovaz ®

Gender:

Longevity: 9 years 5 months

Posts: 87

Торрент-статистика

Post 01-Nov-2011 11:40

[Quote]

-Мельница и крест / The Mill and the Cross -Страна: Швеция, Польша
Студия: Silesia Film
Жанр: драма, история
Год выпуска: 2011
Мировая премьера: 23 января 2011
Российская премьера: 22 сентября 2011, «RUSCICO»
Дата выхода DVD: 13 октября 2011, «Новый Диск», «Ruscico»
Продолжительность: 01:31:35
Перевод: Профессиональный (многоголосый закадровый) [Лицензия]
Cубтитры: русские-Режиссер: Лех Маевский / Lech Majewski-В ролях: Рутгер Хауэр, Шарлотта Рэмплинг, Майкл Йорк, Оскар Гуличка, Йоанна Литвин, Мариан Макуля-Описание: В основе фильма — написанный в 1564 году Питером Брейгелем шедевр «Путь на Голгофу», созданный на сюжет Страстей Христовых. Картина Леха Маевского представляет собой фантазию на тему судеб десяти персонажей, которых можно увидеть на знаменитом полотне (в их числе — Дева Мария), самого Питера Брейгеля и антверпенского купца, коллекционера предметов искусства Николоса Йонгелинка, по заказу которого художником было создано несколько картин.-Бонусы: Смотрите на DVD- -Качество: DVD9 R5
Формат: DVD-Video
Видео кодек: MPEG2
Аудио кодек: AC3
Видео: PAL 16:9 (720x576(0.816)) MPEG Video, 25,000 кадр/сек, 8462 Кбит/сек
Аудио #1: Russian (Dolby AC3, 2 ch) 192 Кбит/сек, 48,0 КГц
Аудио #2: English (Dolby AC3, 2 ch) 192 Кбит/сек, 48,0 КГц-
-

DVDInfo

Title: Рабочий
Size: 6.18 Gb ( 6 482 216 KBytes ) - DVD-9
Enabled regions: 1, 2, 3, 4, 5, 6, 7, 8
VTS_01 :
Play Length: 00:00:10
Video: PAL 16:9 (720x576) VBR, Auto Letterboxed
VTS_02 :
Play Length: 00:00:21
Video: PAL 16:9 (720x576) VBR, Auto Letterboxed
Audio:
Not specified (Dolby AC3, 6 ch)
VTS_03 :
Play Length: 00:01:44
Video: PAL 4:3 (720x576) VBR
Audio:
Russian (Dolby AC3, 2 ch)
VTS_04 :
Play Length: 00:05:19
Video: PAL 16:9 (720x576) VBR, Auto Letterboxed
Audio:
Russian (Dolby AC3, 2 ch)
VTS_05 :
Play Length: 01:31:35
Video: PAL 16:9 (720x576) VBR, Auto Letterboxed
Audio:
Russian (Dolby AC3, 2 ch)
English (Dolby AC3, 2 ch)
Subtitles:
Russian

MediaInfo

Общее
Полное имя : G:\Новинки 2011\Mel'nica.i.krest.2011.DVD9\VIDEO_TS\VTS_05_1.VOB
Формат : MPEG-PS
Размер файла : 1024 Мбайт
Продолжительность : 15 м.
Общий поток : 9026 Кбит/сек
Видео
Идентификатор : 224 (0xE0)
Формат : MPEG Video
Версия формата : Version 2
Профиль формата : [email protected]
Параметр BVOP формата : Да
Параметр матрицы формата : Выборочная
Параметр GOP формата : M=3, N=9
Продолжительность : 15 м.
Битрейт : 8462 Кбит/сек
Максимальный битрейт : 8500 Кбит/сек
Ширина : 720 пикселей
Высота : 576 пикселей
Соотношение сторон : 16:9
Частота кадров : 25,000 кадров/сек
Стандарт вещания : PAL
Цветовое пространство : YUV
Субдискретизация насыщенности : 4:2:0
Битовая глубина : 8 бит
Тип развёртки : Чересстрочная
Порядок развёртки : Верхнее поле первое
Метод сжатия : С потерями
Бит/(Пиксели*Кадры) : 0.816
Размер потока : 960 Мбайт (94%)
Аудио #1
Идентификатор : 189 (0xBD)-128 (0x80)
Формат : AC-3
Формат/Информация : Audio Coding 3
Расширение режима : CM (complete main)
Режим смешивания : DVD-Video
Продолжительность : 15 м.
Вид битрейта : Постоянный
Битрейт : 192 Кбит/сек
Каналы : 2 канала
Расположение каналов : Front: L R
Частота : 48,0 КГц
Битовая глубина : 16 бит
Метод сжатия : С потерями
Размер потока : 21,8 Мбайт (2%)
Аудио #2
Идентификатор : 189 (0xBD)-129 (0x81)
Формат : AC-3
Формат/Информация : Audio Coding 3
Расширение режима : CM (complete main)
Режим смешивания : DVD-Video
Продолжительность : 15 м.
Вид битрейта : Постоянный
Битрейт : 192 Кбит/сек
Каналы : 2 канала
Расположение каналов : Front: L R
Частота : 48,0 КГц
Битовая глубина : 16 бит
Метод сжатия : С потерями
Размер потока : 21,8 Мбайт (2%)

Скриншоты меню

       

Скриншоты фильма

               
-
-
-
-
Other forum [Profile] [PM]
Display posts from previous:    
Reply to topic

The time now is: Today 23:41

All times are GMT + 3 Hours



You cannot post new topics in this forum
You cannot reply to topics in this forum
You cannot edit your posts in this forum
You cannot delete your posts in this forum
You cannot vote in polls in this forum
You cannot attach files in this forum
You cannot download files in this forum