Today is a free download without charge Download

Ничего, кроме правды / Nothing But the Truth (Род Лури) [2008 г., триллер, драма, BDRip720p]

Reply to topic
 
Author
Message

Delia ®

Gender:

Longevity: 10 years

Posts: 1821

Торрент-статистика

Post 01-Nov-2011 09:41

[Quote]

Ничего, кроме правдыNothing But the Truth Год выпуска: 2008
Страна: США
Жанр: триллер, драма
Продолжительность: 01:47:02
Перевод: Профессиональный (многоголосый, закадровый)
Режиссер: Род Лури
Продюссер: Дэннис А. Браун, Марк Фридман, Дэвид Глассер,
Сценарий: Род Лури
Бюджет: $11 500 000
Премьера в мире: 8 сентября 2008
В ролях: Кейт Бекинсейл, Мэтт Диллон, Алан Алда, Вера Фармига,Дэвид Швиммер, Анджела Бассетт, Ной Уайл, Кен Эксмейкер мл., Престон Бэйли, Йохан Бенет
Описание: Журналистка, рассекретившая в своих статьях агента ЦРУ, под угрозой тюрёмного заключения, отказывается раскрывать источник информации, сообщивший ей имя этого агента...
Качество: BDRip720p
Формат: MKV
Видео кодек: H.264
Аудио кодек: AC3
Видео: English, 5080 Кбит/сек, 1280*528 (2,40:1), в 23,976 кадр/сек, AVC ([email protected])
Аудио: Russian, 448 Кбит/сек, 48,0 КГц, 16 бит, 6 канала(ов), AC-3
Аудио:English, 320 Кбит/сек, 48,0 КГц, 16 бит, 6 канала(ов), AC-3
Субтитры:English (VobSub)

MI:

Код:
Общее
Уникальный идентификатор         : 198973350940175543535124130138151784854 (0x95B0DF9BCCE6F37CA454AF946CD11196)
Полное имя                       : E:\торрент\Nothing But the Truth (2008) BDRip720p.mkv
Формат                           : Matroska
Размер файла                     : 4,38 Гбайт
Продолжительность                : 1 ч. 47 м.
Общий поток                      : 5849 Кбит/сек
Дата кодирования                 : UTC 2011-11-01 06:03:04
Программа кодирования            : mkvmerge v5.0.1 ('Es ist Sommer') built on Oct  9 2011 11:55:43
Библиотека кодирования           : libebml v1.2.2 + libmatroska v1.3.0
Видео
Идентификатор                    : 1
Формат                           : AVC
Формат/Информация                : Advanced Video Codec
Профиль формата                  : [email protected]
Параметр CABAC формата           : Да
Параметр ReFrames формата        : 8 кадры
Идентификатор кодека             : V_MPEG4/ISO/AVC
Продолжительность                : 1 ч. 47 м.
Битрейт                          : 5080 Кбит/сек
Ширина                           : 1280 пикс.
Высота                           : 528 пикс.
Соотношение сторон               : 2,40:1
Частота кадров                   : 23,976 кадр/сек
Цветовое пространство            : YUV
Подвыборка цветности             : 4:2:0
Битовая глубина                  : 8 бит
Тип развёртки                    : Прогрессивная
Бит/(Пиксели*Кадры)              : 0.314
Размер потока                    : 3,71 Гбайт (85%)
Библиотека кодирования           : x264 core 119 r2106 07efeb4
Настройки программы              : cabac=1 / ref=8 / deblock=1:-2:-2 / analyse=0x3:0x113 / me=esa / subme=9 / psy=1 / psy_rd=1.00:0.25 / mixed_ref=1 / me_range=32 / chroma_me=1 / trellis=2 / 8x8dct=1 / cqm=0 / deadzone=21,11 / fast_pskip=0 / chroma_qp_offset=-4 / threads=6 / sliced_threads=0 / nr=0 / decimate=0 / interlaced=0 / bluray_compat=0 / constrained_intra=0 / bframes=6 / b_pyramid=2 / b_adapt=2 / b_bias=0 / direct=1 / weightb=1 / open_gop=0 / weightp=2 / keyint=250 / keyint_min=23 / scenecut=40 / intra_refresh=0 / rc_lookahead=60 / rc=2pass / mbtree=1 / bitrate=5080 / ratetol=1.0 / qcomp=0.65 / qpmin=10 / qpmax=51 / qpstep=4 / cplxblur=20.0 / qblur=0.5 / ip_ratio=1.40 / aq=2:0.90
Язык                             : English
Аудио #1
Идентификатор                    : 2
Формат                           : AC-3
Формат/Информация                : Audio Coding 3
Расширение режима                : CM (complete main)
Идентификатор кодека             : A_AC3
Продолжительность                : 1 ч. 47 м.
Вид битрейта                     : Постоянный
Битрейт                          : 448 Кбит/сек
Канал(ы)                         : 6 канала(ов)
Расположение каналов             : Front: L C R, Side: L R, LFE
Частота                          : 48,0 КГц
Битовая глубина                  : 16 бит
Метод сжатия                     : С потерями
Размер потока                    : 343 Мбайт (8%)
Язык                             : Russian
Аудио #2
Идентификатор                    : 3
Формат                           : AC-3
Формат/Информация                : Audio Coding 3
Расширение режима                : CM (complete main)
Идентификатор кодека             : A_AC3
Продолжительность                : 1 ч. 47 м.
Вид битрейта                     : Постоянный
Битрейт                          : 320 Кбит/сек
Канал(ы)                         : 6 канала(ов)
Расположение каналов             : Front: L C R, Side: L R, LFE
Частота                          : 48,0 КГц
Битовая глубина                  : 16 бит
Метод сжатия                     : С потерями
Размер потока                    : 245 Мбайт (5%)
Язык                             : English
Текст
Идентификатор                    : 4
Формат                           : VobSub
Режим смешивания                 : zlib
Идентификатор кодека             : S_VOBSUB
Идентификатор кодека/Информация  : The same subtitle format used on DVDs
Язык                             : English
Меню
00:00:00.000                     : en:Chapter 01
00:05:37.211                     : en:Chapter 02
00:16:10.719                     : en:Chapter 03
00:23:57.769                     : en:Chapter 04
00:32:35.036                     : en:Chapter 05
00:41:25.524                     : en:Chapter 06
00:50:25.897                     : en:Chapter 07
01:00:54.233                     : en:Chapter 08
01:15:01.997                     : en:Chapter 09
01:22:46.753                     : en:Chapter 10
01:29:17.143                     : en:Chapter 11
01:36:34.330                     : en:Chapter 12

Скриншоты

               

_________________
Человек – это канат, натянутый между животным и сверхчеловеком, – канат над пропастью.
В человеке ценно то, что он мост, а не цель. Фридрих Ницше
Other forum [Profile] [PM]
Display posts from previous:    
Reply to topic

The time now is: Today 02:54

All times are GMT + 3 Hours



You cannot post new topics in this forum
You cannot reply to topics in this forum
You cannot edit your posts in this forum
You cannot delete your posts in this forum
You cannot vote in polls in this forum
You cannot attach files in this forum
You cannot download files in this forum