Today is a free download without charge Download

Про мышонка, который хотел стать сильным (Тадеуш Павленко) [1983, Рисованный мультфильм, DVDRip]

Reply to topic
 
Author
Message

Omen ®

Longevity: 7 years 11 months

Posts: 181087

Торрент-статистика

Post 15-Nov-2013 00:26

[Quote]

Про мышонка, который хотел стать сильным
Страна: CCCР
Жанр: Рисованный мультфильм
Продолжительность: 00:08:53
Год выпуска: 1983
Русские субтитры: нет
Режиссёр: Тадеуш Павленко
Описание: Жил на свете маленький мышонок. Каждую ночь мышонок пугался всего что движется. «Вот если бы я был сильным!» — мечтал мышонок. Он считал, что самым сильным на свете является солнце и отправился к нему, чтобы оно научило его, как стать сильным, но туча оказалась сильнее солнца, а ветер сильнее тучи, и каменная крепость сильнее ветра. На кого же ему быть похожим …
Доп. информация:
Выпущено:«Киевнаучфильм»
Сценарий:В.Капустян
Художник-постановщик:Н.Чурилов
Композитор:В.Шаповаленко
Директор:И.Мазепа
Качество: DVDRip
Формат: AVI
Видео: 704x528 (1.33:1), 25 fps, XviD MPEG-4 ~2297 kbps avg, 0.25 bit/pixel
Аудио: 48 kHz, AC3 Dolby Digital, 2/0 (L,R) ch, ~256.00 kbps avg
Субтитры: нет

Подробные технические данные

Format : AVIFormat/Info : Audio Video InterleaveFile size : 163 MiBDuration : 8mn 53sOverall bit rate : 2 564 KbpsWriting application : VirtualDubModRus 1.5.10.2 (build 2542/release)Copyright : Rutracker.orgComment : DVDRip by dvdss
VideoID : 0Format : MPEG-4 VisualFormat profile : Advanced [email protected] settings, BVOP : 2Format settings, QPel : NoFormat settings, GMC : No warppointsFormat settings, Matrix : CustomCodec ID : XVIDCodec ID/Hint : XviDDuration : 8mn 53sBit rate : 2 298 KbpsWidth : 704 pixelsHeight : 528 pixelsDisplay aspect ratio : 5:4Original display aspect ratio : 4:3Frame rate : 25.000 fpsColor space : YUVChroma subsampling : 4:2:0Bit depth : 8 bitsScan type : ProgressiveCompression mode : LossyBits/(Pixel*Frame) : 0.247Stream size : 146 MiB (90%)Writing library : XviD 65
AudioID : 1Format : AC-3Format/Info : Audio Coding 3Mode extension : CM (complete main)Format settings, Endianness : BigCodec ID : 2000Duration : 8mn 53sBit rate mode : ConstantBit rate : 256 KbpsChannel(s) : 2 channelsChannel positions : Front: L RSampling rate : 48.0 KHzBit depth : 16 bitsCompression mode : LossyStream size : 16.3 MiB (10%)Alignment : Split accross interleavesInterleave, duration : 40 ms (1.00 video frame)Interleave, preload duration : 500 ms

Скриншоты

Other forum [Profile] [PM]
Display posts from previous:    
Reply to topic

The time now is: Today 15:36

All times are GMT + 3 Hours



You cannot post new topics in this forum
You cannot reply to topics in this forum
You cannot edit your posts in this forum
You cannot delete your posts in this forum
You cannot vote in polls in this forum
You cannot attach files in this forum
You cannot download files in this forum