Today is a free download without charge Download

Журавлик (Анатолий Кирик) [1982, Кукольно-рисованный мультфильм, DVDRip]

Reply to topic
 
Author
Message

Omen ®

Longevity: 7 years 11 months

Posts: 181087

Торрент-статистика

Post 14-Nov-2013 07:46

[Quote]

Журавлик
Страна: СССР
Жанр: Кукольно-рисованный мультфильм
Продолжительность: 00:08:59
Год выпуска: 1982
Русские субтитры: нет
Режиссёр: Анатолий Кирик
Описание: Фильм режиссера Анатолия Кирика по мотивам поэмы Бориса Олейника "Крыло". Маленький мальчик приносит домой птицу с перебитым крылом, который становится ему добрым товарищем. Он сам становится крылатым, т.е. благородным, счастливым от красивого поступка, через который раскрывается его душа.
Доп. информация:
Выпущено:«Киевнаучфильм»
Художники постановщики:В.Сабликов
Оператор:В.Ракитин
Директор:Н.Литвиненко
Качество: DVDRip
Формат: AVI
Видео: 704x528 (1.33:1), 25 fps, XviD MPEG-4 ~2300 kbps avg, 0.25 bit/pixel
Аудио: 48 kHz, AC3 Dolby Digital, 2/0 (L,R) ch, ~256.00 kbps avg
Субтитры: нет

Подробные технические данные

Format : AVIFormat/Info : Audio Video InterleaveFile size : 165 MiBDuration : 8mn 59sOverall bit rate : 2 566 KbpsWriting application : VirtualDubModRus 1.5.10.2 (build 2542/release)Copyright : Rutracker.orgComment : DVDRip by dvdss
VideoID : 0Format : MPEG-4 VisualFormat profile : Advanced [email protected] settings, BVOP : 2Format settings, QPel : NoFormat settings, GMC : No warppointsFormat settings, Matrix : CustomCodec ID : XVIDCodec ID/Hint : XviDDuration : 8mn 59sBit rate : 2 300 KbpsWidth : 704 pixelsHeight : 528 pixelsDisplay aspect ratio : 5:4Original display aspect ratio : 4:3Frame rate : 25.000 fpsColor space : YUVChroma subsampling : 4:2:0Bit depth : 8 bitsScan type : ProgressiveCompression mode : LossyBits/(Pixel*Frame) : 0.248Stream size : 148 MiB (90%)Writing library : XviD 65
AudioID : 1Format : AC-3Format/Info : Audio Coding 3Mode extension : CM (complete main)Format settings, Endianness : BigCodec ID : 2000Duration : 8mn 59sBit rate mode : ConstantBit rate : 256 KbpsChannel(s) : 2 channelsChannel positions : Front: L RSampling rate : 48.0 KHzBit depth : 16 bitsCompression mode : LossyStream size : 16.5 MiB (10%)Alignment : Aligned on interleavesInterleave, duration : 40 ms (1.00 video frame)Interleave, preload duration : 512 ms
Other forum [Profile] [PM]
Display posts from previous:    
Reply to topic

The time now is: Today 14:38

All times are GMT + 3 Hours



You cannot post new topics in this forum
You cannot reply to topics in this forum
You cannot edit your posts in this forum
You cannot delete your posts in this forum
You cannot vote in polls in this forum
You cannot attach files in this forum
You cannot download files in this forum