Today is a free download without charge Download

Убийца внутри меня / The Killer Inside Me (Майкл Уинтерботтом / Michael Winterbottom) [2010, США, триллер, драма, криминал, HDRip-AVC] DUB

Reply to topic
 
Author
Message

Delia ®

Gender:

Longevity: 10 years

Posts: 1821

Торрент-статистика

Post 31-Oct-2011 12:57

[Quote]

Убийца внутри меня / The Killer Inside Me Страна: США
Жанр: триллер, драма, криминал
Год выпуска: 2010
Продолжительность: 01:49:14
Перевод: Профессиональный (дублированный)
Cубтитры: нет
Режиссер: Майкл Уинтерботтом / Michael Winterbottom
В ролях: Кейси Аффлек, Кейт Хадсон, Джессика Альба, Нед Битти, Элиас Котеас, Том Бауэр, Саймон Бейкер, Билл Пуллман, Брент Бриско
Описание: Помощник шерифа Лу Форд — настоящий техасец из маленького городка. Неторопливый, дружелюбный и даже обаятельный, он скрывает внутри себя совсем другую личность — неумолимого душегуба, который убивает так же легко, как раскуривает сигару. И всю свою историю он словно сам себе и рассказывает, с интересом наблюдая, сумеют ли его коллеги найти истинного преступника. И будет ли, наконец, остановлен Лу на дороге Зла? Дороге, которую он не выбирал…
Доп. информация:
IMDB
СЭМПЛ
Качество видео: HDRip-AVC(Исх. BD1080)
Формат видео: MKV
Видео: 1024x432 (2.35:1), 23.976 fps, AVC, ~1522 kbps, 0.144 bits/pixel
Аудио: 48.0 KHz, AC3, 6 ch, 384 kbps

MediaInfo

General
Unique ID : 179523105253758736138548998055799692208 (0x870EE47518D9CFE8A4D0D309383A1BB0)
Complete name : L:\The Killer Inside Me.chopper887.mkv
Format : Matroska
File size : 1.45 GiB
Duration : 1h 49mn
Overall bit rate : 1 906 Kbps
Movie name : The Killer Inside Me.chopper887
Encoded date : UTC 2010-11-16 12:02:14
Writing application : mkvmerge v3.0.0 ('Hang up your Hang-Ups') built on Dec 12 2009 15:20:35
Writing library : libebml v0.7.9 + libmatroska v0.8.1
Video
ID : 1
Format : AVC
Format/Info : Advanced Video Codec
Format profile : [email protected]
Format settings, CABAC : Yes
Format settings, ReFrames : 9 frames
Codec ID : V_MPEG4/ISO/AVC
Duration : 1h 49mn
Bit rate : 1 522 Kbps
Width : 1 024 pixels
Height : 432 pixels
Display aspect ratio : 2.35:1
Frame rate : 23.976 fps
Color space : YUV
Chroma subsampling : 4:2:0
Bit depth : 8 bits
Scan type : Progressive
Bits/(Pixel*Frame) : 0.144
Stream size : 1.13 GiB (78%)
Title : The Killer Inside Me.chopper887
Writing library : x264 core 104 r1713 c276662
Encoding settings : cabac=1 / ref=9 / deblock=1:-2:-1 / analyse=0x3:0x133 / me=umh / subme=9 / psy=1 / psy_rd=1.00:0.10 / mixed_ref=1 / me_range=32 / chroma_me=1 / trellis=2 / 8x8dct=1 / cqm=0 / deadzone=21,11 / fast_pskip=0 / chroma_qp_offset=-3 / threads=3 / sliced_threads=0 / nr=0 / decimate=1 / interlaced=0 / constrained_intra=0 / bframes=10 / b_pyramid=2 / b_adapt=2 / b_bias=0 / direct=3 / weightb=1 / open_gop=0 / weightp=2 / keyint=250 / keyint_min=23 / scenecut=40 / intra_refresh=0 / rc_lookahead=30 / rc=2pass / mbtree=1 / bitrate=1522 / ratetol=1.0 / qcomp=0.60 / qpmin=10 / qpmax=51 / qpstep=4 / cplxblur=20.0 / qblur=0.5 / ip_ratio=1.40 / aq=1:1.10
Language : English
Audio
ID : 2
Format : AC-3
Format/Info : Audio Coding 3
Mode extension : CM (complete main)
Codec ID : A_AC3
Duration : 1h 49mn
Bit rate mode : Constant
Bit rate : 384 Kbps
Channel(s) : 6 channels
Channel positions : Front: L C R, Side: L R, LFE
Sampling rate : 48.0 KHz
Bit depth : 16 bits
Compression mode : Lossy
Stream size : 300 MiB (20%)
Title : Дубляж

Скриншоты

       

_________________
Человек – это канат, натянутый между животным и сверхчеловеком, – канат над пропастью.
В человеке ценно то, что он мост, а не цель. Фридрих Ницше
Other forum [Profile] [PM]
Display posts from previous:    
Reply to topic

The time now is: Today 19:45

All times are GMT + 3 Hours



You cannot post new topics in this forum
You cannot reply to topics in this forum
You cannot edit your posts in this forum
You cannot delete your posts in this forum
You cannot vote in polls in this forum
You cannot attach files in this forum
You cannot download files in this forum