Today is a free download without charge Download

День независимости / Independence Day (Роланд Эммерих) [1996 г., фантастика, боевик, триллер, приключения,, ВDRip720р]

Reply to topic
 
Author
Message

Delia ®

Gender:

Longevity: 11 years

Posts: 1821

Торрент-статистика

Post 30-Oct-2011 22:00

[Quote]

День независимостиIndependence Day Год выпуска: 1996
Страна: США
Жанр: фантастика, боевик, триллер, приключения,
Продолжительность: 02:24:48
Перевод: Профессиональный (многоголосый, закадровый)
Режиссер: Роланд Эммерих
Продюссер: Дин Девлин, Роланд Эммерих, Ут Эммерих
Сценарий: Дин Девлин, Роланд Эммерих
Бюджет: $75 000 000
Премьера в мире: 25 июня 1996
В ролях: Уилл Смит, Джефф Голдблюм, Билл Пуллман, Мэри МакДоннелл, Джадд Хёрш, Роберт Лоджа, Рэнди Куэйд, Маргарет Колин, Вивика А. Фокс, Джеймс Ребхорн
Описание: На Земле принимается сигнал, посланный источником явно неземного происхождения. Источник этот приближается, и на «уши» поднимается вся планета. Никто, правда, не ожидал, что инопланетяне окажутся такими огромными и в таком количестве.
Качество: ВDRip720р
Формат: MKV
Видео кодек: H.264
Аудио кодек: AC3
Видео: English, 5523 Кбит/сек, 1280*544 (2,35:1), в 23,976 кадр/сек, AVC ([email protected])
Аудио: Russian, 640 Кбит/сек, 48,0 КГц, 16 бит, 6 канала(ов), AC-3
Аудио: English, 320 Кбит/сек, 48,0 КГц, 16 бит, 6 канала(ов), AC-3
Субтитры: Russian, English ( VobSub )

MI:

Код:
Общее
Уникальный идентификатор         : 208011813804001190089692385087759263735 (0x9C7D9E3BBED40ACDAE239973912F27F7)
Полное имя                       : E:\торрент\Independence Day(1996)BDRip720p.mkv
Формат                           : Matroska
Размер файла                     : 6,56 Гбайт
Продолжительность                : 2 ч. 24 м.
Общий поток                      : 6488 Кбит/сек
Дата кодирования                 : UTC 2011-10-30 17:35:00
Программа кодирования            : mkvmerge v5.0.1 ('Es ist Sommer') built on Oct  9 2011 11:55:43
Библиотека кодирования           : libebml v1.2.2 + libmatroska v1.3.0
Видео
Идентификатор                    : 1
Формат                           : AVC
Формат/Информация                : Advanced Video Codec
Профиль формата                  : [email protected]
Параметр CABAC формата           : Да
Параметр ReFrames формата        : 8 кадры
Идентификатор кодека             : V_MPEG4/ISO/AVC
Продолжительность                : 2 ч. 24 м.
Битрейт                          : 5523 Кбит/сек
Ширина                           : 1280 пикс.
Высота                           : 544 пикс.
Соотношение сторон               : 2,35:1
Частота кадров                   : 23,976 кадр/сек
Цветовое пространство            : YUV
Подвыборка цветности             : 4:2:0
Битовая глубина                  : 8 бит
Тип развёртки                    : Прогрессивная
Бит/(Пиксели*Кадры)              : 0.331
Размер потока                    : 5,46 Гбайт (83%)
Библиотека кодирования           : x264 core 119 r2106 07efeb4
Настройки программы              : cabac=1 / ref=8 / deblock=1:-3:-2 / analyse=0x3:0x113 / me=esa / subme=10 / psy=1 / psy_rd=1.00:0.25 / mixed_ref=1 / me_range=32 / chroma_me=1 / trellis=2 / 8x8dct=1 / cqm=0 / deadzone=21,11 / fast_pskip=0 / chroma_qp_offset=-4 / threads=6 / sliced_threads=0 / nr=0 / decimate=1 / interlaced=0 / bluray_compat=0 / constrained_intra=0 / bframes=6 / b_pyramid=2 / b_adapt=2 / b_bias=0 / direct=1 / weightb=1 / open_gop=0 / weightp=2 / keyint=250 / keyint_min=23 / scenecut=40 / intra_refresh=0 / rc_lookahead=60 / rc=2pass / mbtree=1 / bitrate=5523 / ratetol=1.0 / qcomp=0.65 / qpmin=10 / qpmax=51 / qpstep=4 / cplxblur=20.0 / qblur=0.5 / ip_ratio=1.40 / aq=2:0.90
Язык                             : English
Аудио #1
Идентификатор                    : 2
Формат                           : AC-3
Формат/Информация                : Audio Coding 3
Расширение режима                : CM (complete main)
Идентификатор кодека             : A_AC3
Продолжительность                : 2 ч. 24 м.
Вид битрейта                     : Постоянный
Битрейт                          : 640 Кбит/сек
Канал(ы)                         : 6 канала(ов)
Расположение каналов             : Front: L C R, Side: L R, LFE
Частота                          : 48,0 КГц
Битовая глубина                  : 16 бит
Метод сжатия                     : С потерями
Размер потока                    : 663 Мбайт (10%)
Язык                             : Russian
Аудио #2
Идентификатор                    : 3
Формат                           : AC-3
Формат/Информация                : Audio Coding 3
Расширение режима                : CM (complete main)
Идентификатор кодека             : A_AC3
Продолжительность                : 2 ч. 24 м.
Вид битрейта                     : Постоянный
Битрейт                          : 320 Кбит/сек
Канал(ы)                         : 6 канала(ов)
Расположение каналов             : Front: L C R, Side: L R, LFE
Частота                          : 48,0 КГц
Битовая глубина                  : 16 бит
Метод сжатия                     : С потерями
Размер потока                    : 331 Мбайт (5%)
Язык                             : English
Текст #1
Идентификатор                    : 4
Формат                           : VobSub
Режим смешивания                 : zlib
Идентификатор кодека             : S_VOBSUB
Идентификатор кодека/Информация  : The same subtitle format used on DVDs
Язык                             : Russian
Текст #2
Идентификатор                    : 5
Формат                           : VobSub
Режим смешивания                 : zlib
Идентификатор кодека             : S_VOBSUB
Идентификатор кодека/Информация  : The same subtitle format used on DVDs
Язык                             : English
Меню
00:00:00.000                     : en:Chapter 01
00:02:43.872                     : en:Chapter 02
00:05:01.467                     : en:Chapter 03
00:07:05.675                     : en:Chapter 04
00:07:35.329                     : en:Chapter 05
00:08:54.700                     : en:Chapter 06
00:10:02.977                     : en:Chapter 07
00:11:39.699                     : en:Chapter 08
00:13:32.645                     : en:Chapter 09
00:17:32.968                     : en:Chapter 10
00:24:09.114                     : en:Chapter 11
00:25:59.724                     : en:Chapter 12
00:28:46.808                     : en:Chapter 13
00:30:54.102                     : en:Chapter 14
00:32:48.633                     : en:Chapter 15
00:34:18.639                     : en:Chapter 16
00:35:55.528                     : en:Chapter 17
00:37:05.765                     : en:Chapter 18
00:37:29.622                     : en:Chapter 19
00:38:37.565                     : en:Chapter 20
00:40:17.415                     : en:Chapter 21
00:41:42.291                     : en:Chapter 22
00:44:27.498                     : en:Chapter 23
00:46:21.528                     : en:Chapter 24
00:50:03.417                     : en:Chapter 25
00:53:01.970                     : en:Chapter 26
00:53:44.638                     : en:Chapter 27
00:58:50.527                     : en:Chapter 28
01:00:09.689                     : en:Chapter 29
01:01:37.276                     : en:Chapter 30
01:02:32.498                     : en:Chapter 31
01:03:17.293                     : en:Chapter 32
01:06:19.308                     : en:Chapter 33
01:07:20.661                     : en:Chapter 34
01:09:08.018                     : en:Chapter 35
01:12:59.416                     : en:Chapter 36
01:15:05.000                     : en:Chapter 37
01:17:55.045                     : en:Chapter 38
01:19:44.946                     : en:Chapter 39
01:27:20.526                     : en:Chapter 40
01:30:47.483                     : en:Chapter 41
01:31:50.838                     : en:Chapter 42
01:34:47.056                     : en:Chapter 43
01:41:28.499                     : en:Chapter 44
01:45:20.605                     : en:Chapter 45
01:46:56.326                     : en:Chapter 46
01:51:34.020                     : en:Chapter 47
01:55:58.660                     : en:Chapter 48
01:59:36.669                     : en:Chapter 49
02:02:45.941                     : en:Chapter 50
02:03:07.922                     : en:Chapter 51
02:08:36.625                     : en:Chapter 52
02:12:32.653                     : en:Chapter 53
02:16:04.156                     : en:Chapter 54
02:24:48.096                     : en:Chapter 55

Скриншоты

       
       

_________________
Человек – это канат, натянутый между животным и сверхчеловеком, – канат над пропастью.
В человеке ценно то, что он мост, а не цель. Фридрих Ницше
Other forum [Profile] [PM]
Display posts from previous:    
Reply to topic

The time now is: Today 01:28

All times are GMT + 3 Hours



You cannot post new topics in this forum
You cannot reply to topics in this forum
You cannot edit your posts in this forum
You cannot delete your posts in this forum
You cannot vote in polls in this forum
You cannot attach files in this forum
You cannot download files in this forum