Today is a free download without charge Download

Пока ты спал / While You Were Sleeping (Джон Тёртелтауб / Jon Turteltaub) [1995 г., драма, мелодрама, комедия, BDRip] [AVO] (П.Санаев) + [MVO] (Первый канал)

Reply to topic
 
Author
Message

maxkiller ®

Gender:

Longevity: 8 years 8 months

Posts: 290

Торрент-статистика

Post 11-Nov-2013 16:02

[Quote]

-Пока ты спал / While You Were Sleeping-
Год выпуска: 1995
Выпущено: США
Жанр: комедия, мелодрама
Продолжительность: 01:43:15
Перевод #1: Авторский (одноголосный)[П.Санаев]
Перевод #2: Профессиональный (многоголосый)[Первый канал]-Режиссер: Джон Тёртелтауб-В ролях: Сандра Буллок, Билл Пуллман, Питер Галлахер, Питер Бойл, Джек Уорден, Глинис Джонс, Миколь Мёркюрио, Джейсон Бернард, Майкл Рисполи, Элли Уокер-Описание: Застенчивость мешает одинокой Люси познакомиться с мужчиной своей мечты, которого она видит каждое утро. Зато помогает случай, и девушка спасает незнакомцу жизнь. Теперь она может любоваться им целыми днями: спасенный Питер лежит в больнице без сознания.
Семья по ошибке принимает ее за невесту, и Люси не хочет разубеждать этих милых людей. Ведь она уже успела привязаться к ним, особенно к брату Питера. И пока ничего не подозревающий "жених" спит, его "невеста" уже не верит в прекрасный сон. Скоро Люси придется выбирать между волшебной сказкой и такой реальной любовью...
-
Качество: BDRip
Формат: AVI
Видео кодек: XviD
Аудио кодек: AC3
Видео: 704x384 (1.83:1), 23.976 fps, XviD MPEG-4 ~1819 kbps avg, 0.28 bit/pixel
Аудио #1: 48 kHz, AC3 Dolby Digital, 2/0 (L,R) ch, ~192.00 kbps avg [П.Санаев]
Аудио #2: 48 kHz, AC3 Dolby Digital, 2/0 (L,R) ch, ~192.00 kbps avg [Первый канал]-

MI

General
Complete name : E:INTERNETWhile You Were Sleeping.1995.BDRip.[AVO](Sanaev)+[MVO](OPT.km).avi
Format : AVI
Format/Info : Audio Video Interleave
File size : 1.60 GiB
Duration : 1h 43mn
Overall bit rate : 2 219 Kbps
Writing application : VirtualDubMod 1.5.10.3 (build 2550/release)
Writing library : VirtualDubMod build 2550/release
Video
ID : 0
Format : MPEG-4 Visual
Format profile : Advanced [email protected]
Format settings, BVOP : Yes
Format settings, QPel : No
Format settings, GMC : No warppoints
Format settings, Matrix : Custom
Codec ID : XVID
Codec ID/Hint : XviD
Duration : 1h 43mn
Bit rate : 1 820 Kbps
Width : 704 pixels
Height : 384 pixels
Display aspect ratio : 16:9
Frame rate : 23.976 fps
Color space : YUV
Chroma subsampling : 4:2:0
Bit depth : 8 bits
Scan type : Progressive
Bits/(Pixel*Frame) : 0.281
Stream size : 1.31 GiB (82%)
Writing library : XviD 64
Audio #1
ID : 1
Format : AC-3
Format/Info : Audio Coding 3
Mode extension : CM (complete main)
Codec ID : 2000
Duration : 1h 43mn
Bit rate mode : Constant
Bit rate : 192 Kbps
Channel(s) : 2 channels
Channel positions : Front: L R
Sampling rate : 48.0 KHz
Bit depth : 16 bits
Stream size : 142 MiB (9%)
Alignment : Split accross interleaves
Interleave, duration : 42 ms (1.00 video frame)
Interleave, preload duration : 500 ms
Audio #2
ID : 2
Format : AC-3
Format/Info : Audio Coding 3
Mode extension : CM (complete main)
Codec ID : 2000
Duration : 1h 43mn
Bit rate mode : Constant
Bit rate : 192 Kbps
Channel(s) : 2 channels
Channel positions : Front: L R
Sampling rate : 48.0 KHz
Bit depth : 16 bits
Stream size : 142 MiB (9%)
Alignment : Split accross interleaves
Interleave, duration : 42 ms (1.00 video frame)
Interleave, preload duration : 500 ms

Скриншоты

       
-
Other forum [Profile] [PM]
Display posts from previous:    
Reply to topic

The time now is: Today 14:29

All times are GMT + 3 Hours



You cannot post new topics in this forum
You cannot reply to topics in this forum
You cannot edit your posts in this forum
You cannot delete your posts in this forum
You cannot vote in polls in this forum
You cannot attach files in this forum
You cannot download files in this forum