Today is a free download without charge Download

Цезарь и Клеопатра / Caesar and Cleopatra (1945) DVDRip [H.264]

Reply to topic
 
Author
Message

UndegraundMen ®

Longevity: 8 years 8 months

Posts: 25145

Торрент-статистика

Post 10-Nov-2013 23:00

[Quote]

Цезарь и Клеопатра / Caesar and Cleopatra (1945) DVDRip [H.264] - Год выпуска: 1945
Жанр: Драма, Мелодрама, Комедия, Военный, Биография, История
Производство: Великобритания/Gabriel Pascal Productions, Independent Producers
Описание фильма:
Исторические данные свидетельствуют о том, что, прибыв в Египет, Юлий Цезарь сделал шестнадцатилетнюю Клеопатру своей любовницей и единовластной царицей Египта. О том же и картина — о взаимоотношениях стареющего Цезаря и юной Клеопатры.
Режиссер: Гэбриел Паскаль
Сценарий: Джордж Бернард Шоу
Продюсер: Гэбриел Паскаль, Дж. Артур Рэнк
Актеры: Клод Рейнс, Вивьен Ли , Стюарт Грейнджер, Флора Робсон, Френсис Л. Салливан, Бейзил Сидни, Сесил Паркер, Рэймонд Ловелл, Энтони Юстрел, Эрнест Тесиджер
Продолжительность: 02:07:50
Качество видео: DVDRip
Перевод: Многоголосый закадровый

Дата мировой премьеры: 11 декабря 1945
Видеокодек: MPEG-4 AVC/H.264
Битрейт видео: ~1435 Кбит/сек
Размер кадра: 720x544
Аудиокодек: AC3 2.0
Битрейт аудио: 192 Кбит/сек

Реценция с кинопоиска от Film fanatic:

… Одна из самых знамеитых пар в истории…
Наверно, каждый человек на планете знает Цезаря и Клеопатру, знает их историю любви. Этот фильм далек от правды, но он показывает всю философию, что хотел передать Бернард Шоу. Фильм очень понравился, очень приятно, что и в столь далекие времена фильмы снимали столь красочно и ярко, не хуже чем теперь, а может и лучше.
Вивьен Ли просто неподражаемая в этой роли!
каждое слово, каждый жест отличается харизматичностью. Очень увлекательно смотреть. как Цезарь учит ее жизни, а она, как маленький котенок плетется за ним.
Клод Рейнс был признан самым лучшим Цезарем в истории кинематографа. и я думаю, что заслужено. В отличии от Тимоти Далтона в «Клеопатре`1999 и Рекса Хариссона в «Клеопатре`1963,он постает перед нами не просто, как полководец, а как уникальная личность с незаурядным умом и собственной философией жизни.
Знаменитая любовь показывается несколько в другом свете, но в свете очень приятном. Чего только стоит диалог Клеопатры при виде уплывающего корабля Цезаря:
-Не плачьте моя госпожа. Рано или поздно он вернется!
-Очень надеюсь. что нет. Но, все равно не могу не плакать.
10 из 10

Награды:

Оскар, 1947 год
Номинации (1):
Лучшая работа художника (цветные фильмы)

MediaInfo:

Общее
Уникальный идентификатор : 182831482005229119464430108918386661071 (0x898C10065C57479588A45A063DCA16CF)
Полное имя : H:\Downloads\Цезарь и Клеопатра.mkv
Формат : Matroska
Размер файла : 1,45 Гбайт
Продолжительность : 2 ч. 7 м.
Общий поток : 1629 Кбит/сек
Дата кодирования : UTC 2013-11-09 00:24:50
Программа кодирования : mkvmerge v6.0.0 ('Coming Up For Air') built on Jan 20 2013 09:52:00
Библиотека кодирования : libebml v1.3.0 + libmatroska v1.4.0
Видео
Идентификатор : 1
Формат : AVC
Формат/Информация : Advanced Video Codec
Профиль формата : [url=mailto:[email protected]][email protected][/url]
Параметр CABAC формата : Да
Параметр ReFrames формата : 8 кадров
Параметры GOP формата : M=1, N=2
Идентификатор кодека : V_MPEG4/ISO/AVC
Продолжительность : 2 ч. 7 м.
Битрейт : 1435 Кбит/сек
Ширина : 720 пикс.
Высота : 544 пикс.
Соотношение сторон : 4:3
Частота кадров : 23,976 кадр/сек
Цветовое пространство : YUV
Подвыборка цветности : 4:2:0
Битовая глубина : 8 бит
Тип развёртки : Прогрессивная
Бит/(Пиксели*Кадры) : 0.153
Размер потока : 1,25 Гбайт (86%)
Заголовок : Caesar and Cleopatra
Библиотека кодирования : x264 core 125 r2208 d9d2288
Настройки программы : cabac=1 / ref=8 / deblock=1:-1:-1 / analyse=0x3:0x133 / me=umh / subme=9 / psy=1 / psy_rd=1.00:0.10 / mixed_ref=1 / me_range=32 / chroma_me=1 / trellis=2 / 8x8dct=1 / cqm=0 / deadzone=21,11 / fast_pskip=0 / chroma_qp_offset=-3 / threads=6 / lookahead_threads=1 / sliced_threads=0 / nr=0 / decimate=1 / interlaced=0 / bluray_compat=0 / constrained_intra=0 / bframes=3 / b_pyramid=2 / b_adapt=2 / b_bias=0 / direct=3 / weightb=1 / open_gop=0 / weightp=2 / keyint=250 / keyint_min=25 / scenecut=40 / intra_refresh=0 / rc_lookahead=60 / rc=2pass / mbtree=1 / bitrate=1435 / ratetol=1.0 / qcomp=0.60 / qpmin=10 / qpmax=51 / qpstep=4 / cplxblur=20.0 / qblur=0.5 / ip_ratio=1.40 / aq=1:1.00
Язык : English
Аудио
Идентификатор : 2
Формат : AC-3
Формат/Информация : Audio Coding 3
Расширение режима : CM (complete main)
Идентификатор кодека : A_AC3
Продолжительность : 2 ч. 7 м.
Вид битрейта : Постоянный
Битрейт : 192 Кбит/сек
Каналы : 2 канала
Расположение каналов : Front: L R
Частота : 48,0 КГц
Битовая глубина : 16 бит
Метод сжатия : С потерями
Размер потока : 176 Мбайт (12%)
Заголовок : Профессиональный многоголосый
Язык : Russian
Скриншоты:                    Время раздачи: с 13:00 до 01:00 по Москве (выходные круглосуточно), до 10 скачавших
Other forum [Profile] [PM]
Similar theme
Forum Topic Author Torrent Replies Last Post
./templates/default/images/folder_dl.gif Домоводство, Сад, Огород, Хобби Цезарь Миллан | Вожак стаи (2019) [PDF] }{@R0N
1 | 0

0 | 708

1

2019-01-17 15:53
}{@R0N Latest
Display posts from previous:    
Reply to topic

The time now is: Today 09:03

All times are GMT + 3 Hours



You cannot post new topics in this forum
You cannot reply to topics in this forum
You cannot edit your posts in this forum
You cannot delete your posts in this forum
You cannot vote in polls in this forum
You cannot attach files in this forum
You cannot download files in this forum