Сегодня идет свободное скачивание без начисления Download

Грязный Гарри / Dirty Harry Антология (1971, 1973, 1976, 1983, 1988) BDRip [H.264/720p-LQ] [Hi10P]

Ответить на тему
 
Автор
Сообщение

Omen ®

Стаж: 6 лет

Сообщений: 184329

Торрент-статистика

Пост 10-Ноя-2013 22:08

[Цитировать]

Грязный Гарри / Dirty Harry
Антология
- Страна: СШАГод выпуска: 1971, 1973, 1976, 1983, 1988Жанр: Боевик, Триллер, КриминалПродолжительность: 01:42:29, 02:02:33, 01:36:36, 01:57:09, 01:31:13Перевод: Профессиональный (Дублированный), Профессиональный (многоголосый закадровый), Авторский (одноголосый закадровый)Режиссер: Дон Сигел, Тед Пост, Джеймс Фарго, Клинт Иствуд, Бадди Ван ХорнАктеры: Клинт Иствуд, Хэрри Гардино, Энди Робинсон, Джон Вернон, Джон Ларч, Джон Митчэм, Хэл Холбрук, Митчелл Райан, Фелтон Перри, Дэвид Соул, Роберт Урих, Тим Матисон, Кип Найвен, Тайн Дэйли, Брэдфорд Диллмэн, ДеВерен Букуолтер, Элберт Попуэлл, Одри Дж. Нинэн, Пол Дрэйк, Сондра Лок, Патриши

Грязный Гарри / Dirty Harry (1971)

Грязный Гарри / Dirty Harry (1971) BDRip [H.264/720p-LQ] [Hi10P] - Год выпуска: 1971
Страна: США
Жанр: Боевик, Триллер, Криминал
Продолжительность: 01:42:29
Перевод: Профессиональный (многоголосый, закадровый)x3, Авторский (одноголосый, закадровый)
Субтитры: Русские, английские
Режиссер: Дон Сигел
В ролях: Клинт Иствуд, Джон Вернон, Гарри Гуардино, Эндрю Робинсон, Рени Сантони, Джон Ларч, Джон Митчэм, Мэй Мерсер, Рут Кобарт, Вудроу Парфри, Джозеф Соммер, Джеймс Нолан, Морис Аргент, Джо Де Уинтер, Лин Эджингтон, Альберт Попвелл, Уильям Пэтерсон
Описание: Фильм "Грязный Гарри" стал очередной поворотной точкой в артистической карьере Клинта Иствуда. В 70-х годах он сменил привычный костюм героя вестерна и лихого наездника, запомнившегося по "спагетти-вестернам" 60-х, на форму полицейского Гарри Кэллахана по прозвищу Грязный Гарри. Гарри должен найти и обезвредить убийцу-маньяка по кличке Скорпион, который терроризирует весь город. Герой фильма не намерен придерживаться устава полицейского. Его кольт 44-го калибра всегда с ним и готов к бою, его принцип: "сначала стрелять, потом разбираться".

Качество: BDRip
Формат: MKV
Видео: MPEG-4 AVC/H.264, 1280x536(2,40:1), 23.976fps, 1703 Кbps, 0.104bit/pixel
Аудио 1: MVO Russian, AC3, 6ch, 48 kHz, 384 kbps, (Многоголосый)
Аудио 2: MVO Russian, AC3, 2ch, 48 kHz, 192 kbps, (Многоголосый Варус видео)
Аудио 3: MVO Russian, AC3, 2ch, 48 kHz, 192 kbps, (Многоголосый РТР)
Аудио 4: AVO Russian, AC3, 2ch, 48 kHz, 192 kbps, (Одноголосый Гаврилов)
Аудио 5: English, AC3, 6ch, 48 kHz, 448 kbps, (Оригинал)

MediaInfo

Общее
Формат : Matroska
Версия формата : Version 4 / Version 2
Размер файла : 2,27 Гбайт
Продолжительность : 1 ч. 42 м.
Общий поток : 3174 Кбит/сек
Название фильма : Грязный Гарри / Dirty Harry (1971) BDRip-AVC (Sinteros)
Программа кодирования : mkvmerge v6.5.0 ('Isn't she lovely') built on Oct 20 2013 12:50:05
Библиотека кодирования : libebml v1.3.0 + libmatroska v1.4.1
Attachment : Yes
Видео
Идентификатор : 1
Формат : AVC
Формат/Информация : Advanced Video Codec
Профиль формата : High [url=mailto:[email protected]][email protected][/url]
Параметр CABAC формата : Да
Параметр ReFrames формата : 11 кадров
Идентификатор кодека : V_MPEG4/ISO/AVC
Продолжительность : 1 ч. 42 м.
Битрейт : 1703 Кбит/сек
Ширина : 1280 пикселей
Высота : 536 пикселей
Соотношение сторон : 2,40:1
Режим частоты кадров : Постоянный
Частота кадров : 23,976 кадра/сек
Цветовое пространство : YUV
Субдискретизация насыщенности : 4:2:0
Битовая глубина : 10 бит
Тип развёртки : Прогрессивная
Бит/(Пиксели*Кадры) : 0.104
Размер потока : 1,22 Гбайт (54%)
Заголовок : MPEG-4 AVC/H.264, 1280x536(2,40:1), 23.976fps, 1703 Кbps, 0.104bit/pixel
Библиотека кодирования : x264 core 133 r2334 a3ac64b
Настройки программы : cabac=1 / ref=11 / deblock=1:-1:-1 / analyse=0x3:0x133 / me=tesa / subme=10 / psy=1 / psy_rd=1.00:0.15 / mixed_ref=1 / me_range=24 / chroma_me=1 / trellis=2 / 8x8dct=1 / cqm=0 / deadzone=21,11 / fast_pskip=1 / chroma_qp_offset=-3 / threads=12 / lookahead_threads=1 / sliced_threads=0 / nr=0 / decimate=1 / interlaced=0 / bluray_compat=0 / constrained_intra=0 / bframes=6 / b_pyramid=2 / b_adapt=2 / b_bias=0 / direct=3 / weightb=1 / open_gop=0 / weightp=2 / keyint=250 / keyint_min=23 / scenecut=40 / intra_refresh=0 / rc_lookahead=60 / rc=crf / mbtree=1 / crf=19.0 / qcomp=0.60 / qpmin=0 / qpmax=81 / qpstep=4 / ip_ratio=1.40 / aq=1:1.00
Язык : English
Default : Да
Forced : Нет
Аудио #1
Идентификатор : 2
Формат : AC-3
Формат/Информация : Audio Coding 3
Расширение режима : CM (complete main)
Параметр Endianness формата : Big
Идентификатор кодека : A_AC3
Продолжительность : 1 ч. 42 м.
Вид битрейта : Постоянный
Битрейт : 384 Кбит/сек
Каналы : 6 каналов
Расположение каналов : Front: L C R, Side: L R, LFE
Частота : 48,0 КГц
Битовая глубина : 16 бит
Метод сжатия : С потерями
Размер потока : 282 Мбайт (12%)
Заголовок : MVO Russian, AC3, 6ch, 48 kHz, 384 kbps, (Многоголосый)
Язык : Russian
Default : Да
Forced : Нет
Аудио #2
Идентификатор : 3
Формат : AC-3
Формат/Информация : Audio Coding 3
Расширение режима : CM (complete main)
Параметр Endianness формата : Big
Идентификатор кодека : A_AC3
Продолжительность : 1 ч. 42 м.
Вид битрейта : Постоянный
Битрейт : 192 Кбит/сек
Каналы : 2 канала
Расположение каналов : Front: L R
Частота : 48,0 КГц
Битовая глубина : 16 бит
Метод сжатия : С потерями
Размер потока : 141 Мбайт (6%)
Заголовок : MVO Russian, AC3, 2ch, 48 kHz, 192 kbps, (Многоголосый Варус видео)
Язык : Russian
Default : Нет
Forced : Нет
Аудио #3
Идентификатор : 4
Формат : AC-3
Формат/Информация : Audio Coding 3
Расширение режима : CM (complete main)
Параметр Endianness формата : Big
Идентификатор кодека : A_AC3
Продолжительность : 1 ч. 42 м.
Вид битрейта : Постоянный
Битрейт : 192 Кбит/сек
Каналы : 2 канала
Расположение каналов : Front: L R
Частота : 48,0 КГц
Битовая глубина : 16 бит
Метод сжатия : С потерями
Размер потока : 141 Мбайт (6%)
Заголовок : MVO Russian, AC3, 2ch, 48 kHz, 192 kbps, (Многоголосый РТР)
Язык : Russian
Default : Нет
Forced : Нет
Аудио #4
Идентификатор : 5
Формат : AC-3
Формат/Информация : Audio Coding 3
Расширение режима : CM (complete main)
Параметр Endianness формата : Big
Идентификатор кодека : A_AC3
Продолжительность : 1 ч. 42 м.
Вид битрейта : Постоянный
Битрейт : 192 Кбит/сек
Каналы : 2 канала
Расположение каналов : Front: L R
Частота : 48,0 КГц
Битовая глубина : 16 бит
Метод сжатия : С потерями
Размер потока : 141 Мбайт (6%)
Заголовок : AVO Russian, AC3, 2ch, 48 kHz, 192 kbps, (Одноголосый Гаврилов)
Язык : Russian
Default : Нет
Forced : Нет
Аудио #5
Идентификатор : 6
Формат : AC-3
Формат/Информация : Audio Coding 3
Расширение режима : CM (complete main)
Параметр Endianness формата : Big
Идентификатор кодека : A_AC3
Продолжительность : 1 ч. 42 м.
Вид битрейта : Постоянный
Битрейт : 448 Кбит/сек
Каналы : 6 каналов
Расположение каналов : Front: L C R, Side: L R, LFE
Частота : 48,0 КГц
Битовая глубина : 16 бит
Метод сжатия : С потерями
Размер потока : 328 Мбайт (14%)
Заголовок : Английский (AC3, 6 ch, 448 Кбит/с)
Язык : English
Default : Нет
Forced : Нет
Текст #1
Идентификатор : 7
Формат : UTF-8
Идентификатор кодека : S_TEXT/UTF8
Идентификатор кодека/Информация : UTF-8 Plain Text
Язык : Russian
Default : Нет
Forced : Нет
Текст #2
Идентификатор : 8
Формат : UTF-8
Идентификатор кодека : S_TEXT/UTF8
Идентификатор кодека/Информация : UTF-8 Plain Text
Язык : English
Default : Нет
Forced : Нет
Меню
00:00:00.000 : ru:1 глава
00:10:00.000 : ru:2 глава
00:20:00.000 : ru:3 глава
00:30:00.000 : ru:4 глава
00:40:00.000 : ru:5 глава
00:50:00.000 : ru:6 глава
01:00:00.000 : ru:7 глава
01:10:00.000 : ru:8 глава
01:20:00.000 : ru:9 глава
01:30:00.000 : ru:10 глава
Скриншоты:
         
         

Грязный Гарри - Сила Магнума / Dirty Harry - Magnum Force (1973)

Грязный Гарри - Сила Магнума / Dirty Harry - Magnum Force (1973) BDRip [H.264/720p-LQ] [Hi10P] - Год выпуска: 1973
Страна: США
Жанр: Боевик, Триллер, Криминал
Продолжительность: 02:02:33
Перевод: Профессиональный (Дублированный), Профессиональный (многоголосый закадровый), Авторский (одноголосый закадровый)
Субтитры: Английские
Режиссер: Тед Пост
В ролях: Клинт Иствуд, Хэл Холбрук, Митчелл Райан, Фелтон Перри, Дэвид Соул, Роберт Урих, Тим Матисон, Кип Найвен
Описание: Продолжение "Грязного Гарри" (1971). Полицейский детектив из Сан-Франциско по прозвищу Грязный Гарри (Иствуд) выслеживает банду полицейских-мстителей, взявших закон в свои руки. Причем главарь банды (Холбрук) - начальник самого Гарри, постоянно вставляет ему палки в колеса. Вечный враг. В картине, кроме блестяще поставленных боевых сцен, драк, перестрелок и насилия, есть и удачные мысли. По сюжету Иствуд и его новый напарник (Фелтон Перри) расследуют вереницу кровавых убийств главарей преступного мира, а след приводит их к четырем полицейским-новобранцам. Фильм был очень популярен в свое время, да и сейчас поклонники актера и самого "Грязного Гарри" с удовольствием соберут всю серию. Устарел? Может быть, но разве что чуть-чуть. Иствуд может постареть в жизни, но не на экране.

Качество: BDRip
Формат: MKV
Видео: MPEG-4 AVC/H.264, 1280x536(2,40:1), 23.976fps, 1765 Кbps, 0.107bit/pixel
Аудио 1: DUB Russian, AC3, 2ch, 48 kHz, 192 kbps, (Дублированный)
Аудио 2: MVO Russian, AC3, 2ch, 48 kHz, 160 kbps, (Многоголосый)
Аудио 3: AVO Russian, AC3, 6ch, 48 kHz, 384 kbps, (Одноголосый Гаврилов)
Аудио 4: English, AC3, 6ch, 48 kHz, 448 kbps, (Оригинал)

MediaInfo

Общее
Формат : Matroska
Версия формата : Version 4 / Version 2
Размер файла : 2,58 Гбайт
Продолжительность : 2 ч. 2 м.
Общий поток : 3009 Кбит/сек
Название фильма : Грязный Гарри 2: Сила магнума / Dirty Harry 2: Magnum Force (1973) BDRip-AVC (Sinteros)
Программа кодирования : mkvmerge v6.5.0 ('Isn't she lovely') built on Oct 20 2013 12:50:05
Библиотека кодирования : libebml v1.3.0 + libmatroska v1.4.1
Attachment : Yes
Видео
Идентификатор : 1
Формат : AVC
Формат/Информация : Advanced Video Codec
Профиль формата : High [url=mailto:[email protected]][email protected][/url]
Параметр CABAC формата : Да
Параметр ReFrames формата : 11 кадров
Идентификатор кодека : V_MPEG4/ISO/AVC
Продолжительность : 2 ч. 2 м.
Битрейт : 1765 Кбит/сек
Ширина : 1280 пикселей
Высота : 536 пикселей
Соотношение сторон : 2,40:1
Режим частоты кадров : Постоянный
Частота кадров : 23,976 кадра/сек
Цветовое пространство : YUV
Субдискретизация насыщенности : 4:2:0
Битовая глубина : 10 бит
Тип развёртки : Прогрессивная
Бит/(Пиксели*Кадры) : 0.107
Размер потока : 1,51 Гбайт (59%)
Заголовок : MPEG-4 AVC/H.264, 1280x536(2,40:1), 23.976fps, 1765 Кbps, 0.107bit/pixel
Библиотека кодирования : x264 core 133 r2334 a3ac64b
Настройки программы : cabac=1 / ref=11 / deblock=1:-1:-1 / analyse=0x3:0x133 / me=tesa / subme=10 / psy=1 / psy_rd=1.00:0.15 / mixed_ref=1 / me_range=24 / chroma_me=1 / trellis=2 / 8x8dct=1 / cqm=0 / deadzone=21,11 / fast_pskip=1 / chroma_qp_offset=-3 / threads=12 / lookahead_threads=1 / sliced_threads=0 / nr=0 / decimate=1 / interlaced=0 / bluray_compat=0 / constrained_intra=0 / bframes=6 / b_pyramid=2 / b_adapt=2 / b_bias=0 / direct=3 / weightb=1 / open_gop=0 / weightp=2 / keyint=250 / keyint_min=23 / scenecut=40 / intra_refresh=0 / rc_lookahead=60 / rc=crf / mbtree=1 / crf=20.0 / qcomp=0.60 / qpmin=0 / qpmax=81 / qpstep=4 / ip_ratio=1.40 / aq=1:1.00
Язык : English
Default : Да
Forced : Нет
Аудио #1
Идентификатор : 2
Формат : AC-3
Формат/Информация : Audio Coding 3
Расширение режима : CM (complete main)
Параметр Endianness формата : Big
Идентификатор кодека : A_AC3
Продолжительность : 2 ч. 2 м.
Вид битрейта : Постоянный
Битрейт : 192 Кбит/сек
Каналы : 2 канала
Расположение каналов : Front: L R
Частота : 48,0 КГц
Битовая глубина : 16 бит
Метод сжатия : С потерями
Размер потока : 168 Мбайт (6%)
Заголовок : DUB Russian, AC3, 2ch, 48 kHz, 192 kbps, (Дублированный)
Язык : Russian
Default : Да
Forced : Нет
Аудио #2
Идентификатор : 3
Формат : AC-3
Формат/Информация : Audio Coding 3
Расширение режима : CM (complete main)
Параметр Endianness формата : Big
Идентификатор кодека : A_AC3
Продолжительность : 2 ч. 2 м.
Вид битрейта : Постоянный
Битрейт : 160 Кбит/сек
Каналы : 2 канала
Расположение каналов : Front: L R
Частота : 48,0 КГц
Битовая глубина : 16 бит
Метод сжатия : С потерями
Размер потока : 140 Мбайт (5%)
Заголовок : MVO Russian, AC3, 2ch, 48 kHz, 160 kbps, (Многоголосый)
Язык : Russian
Default : Нет
Forced : Нет
Аудио #3
Идентификатор : 4
Формат : AC-3
Формат/Информация : Audio Coding 3
Расширение режима : CM (complete main)
Параметр Endianness формата : Big
Идентификатор кодека : A_AC3
Продолжительность : 2 ч. 2 м.
Вид битрейта : Постоянный
Битрейт : 384 Кбит/сек
Каналы : 6 каналов
Расположение каналов : Front: L C R, Side: L R, LFE
Частота : 48,0 КГц
Битовая глубина : 16 бит
Метод сжатия : С потерями
Размер потока : 337 Мбайт (13%)
Заголовок : AVO Russian, AC3, 6ch, 48 kHz, 384 kbps, (Одноголосый Гаврилов)
Язык : Russian
Default : Нет
Forced : Нет
Аудио #4
Идентификатор : 5
Формат : AC-3
Формат/Информация : Audio Coding 3
Расширение режима : CM (complete main)
Параметр Endianness формата : Big
Идентификатор кодека : A_AC3
Продолжительность : 2 ч. 2 м.
Вид битрейта : Постоянный
Битрейт : 448 Кбит/сек
Каналы : 6 каналов
Расположение каналов : Front: L C R, Side: L R, LFE
Частота : 48,0 КГц
Битовая глубина : 16 бит
Метод сжатия : С потерями
Размер потока : 393 Мбайт (15%)
Заголовок : English, AC3, 6ch, 48 kHz, 448 kbps, (Оригинал)
Язык : English
Default : Нет
Forced : Нет
Текст
Идентификатор : 6
Формат : UTF-8
Идентификатор кодека : S_TEXT/UTF8
Идентификатор кодека/Информация : UTF-8 Plain Text
Язык : English
Default : Нет
Forced : Нет
Меню
00:00:00.000 : ru:1 глава
00:10:00.000 : ru:2 глава
00:20:00.000 : ru:3 глава
00:30:00.000 : ru:4 глава
00:40:00.000 : ru:5 глава
00:50:00.000 : ru:6 глава
01:00:00.000 : ru:7 глава
01:10:00.000 : ru:8 глава
01:20:00.000 : ru:9 глава
01:30:00.000 : :10 глава
01:40:00.000 : ru:11 глава
01:50:00.000 : ru:12 глава
Скриншоты:
         
         

Грязный Гарри - Блюститель закона/ Dirty Harry - The Enforcer (1976)

Грязный Гарри - Блюститель закона/ Dirty Harry - The Enforcer (1976) BDRip [H.264/720p-LQ] [Hi10P] - Год выпуска: 1976
Страна: США
Жанр: Боевик, Триллер, Криминал
Продолжительность: 01:36:36
Перевод: Профессиональный (многоголосый, закадровый)x2, Авторский (одноголосый закадровый)
Субтитры: Английские
Режиссер: Джеймс Фарго
В ролях: Клинт Иствуд, Тайн Дэйли, Хэрри Гардино, Брэдфорд Диллмэн, Джон Митчэм, ДеВерен Букуолтер, Гарри Гуардино, Джон Кроуфорд, Саманта Доан, Роберт Ф. Хой, Жослин Джонс
Описание: Грязный Гарри получает в напарники симпатичную девушку, так как его предыдущего партнера убивают террористы. Вместе с ней он охотится за бандой во главе с садистом, организовавшим похищение мэра Лос-Анджелеса с целью вымогательства приличного выкупа. Жестокий и крепко сделанный боевик

Качество: BDRip
Формат: MKV
Видео: MPEG-4 AVC/H.264, 1280x536(2,40:1), 23.976fps, 1633 Кbps, 0.099bit/pixel
Аудио 1: MVO Russian, AC3, 2ch, 48 kHz, 192 kbps, (Многоголосый Варус видео)
Аудио 2: MVO Russian, AC3, 2ch, 48 kHz, 160 kbps, (Многоголосый)
Аудио 3: AVO Russian, AC3, 6ch, 48 kHz, 384 kbps, (Одноголосый Горчаков)
Аудио 4: English, AC3, 6ch, 48 kHz, 448 kbps, (Оригинал)

MediaInfo

Общее
Формат : Matroska
Версия формата : Version 4 / Version 2
Размер файла : 1,94 Гбайт
Продолжительность : 1 ч. 36 м.
Общий поток : 2875 Кбит/сек
Название фильма : Грязный Гарри 3: Блюститель закона / Подкрепление / Dirty Harry 3: The Enforcer (1976) BDRip-AVC (Sinteros)
Программа кодирования : mkvmerge v6.5.0 ('Isn't she lovely') built on Oct 20 2013 12:50:05
Библиотека кодирования : libebml v1.3.0 + libmatroska v1.4.1
Attachment : Yes
Видео
Идентификатор : 1
Формат : AVC
Формат/Информация : Advanced Video Codec
Профиль формата : High [url=mailto:[email protected]][email protected][/url]
Параметр CABAC формата : Да
Параметр ReFrames формата : 11 кадров
Идентификатор кодека : V_MPEG4/ISO/AVC
Продолжительность : 1 ч. 36 м.
Битрейт : 1633 Кбит/сек
Ширина : 1280 пикселей
Высота : 536 пикселей
Соотношение сторон : 2,40:1
Режим частоты кадров : Постоянный
Частота кадров : 23,976 кадра/сек
Цветовое пространство : YUV
Субдискретизация насыщенности : 4:2:0
Битовая глубина : 10 бит
Тип развёртки : Прогрессивная
Бит/(Пиксели*Кадры) : 0.099
Размер потока : 1,10 Гбайт (57%)
Заголовок : MPEG-4 AVC/H.264, 1280x536(2,40:1), 23.976fps, 1633 Кbps, 0.099bit/pixel
Библиотека кодирования : x264 core 133 r2334 a3ac64b
Настройки программы : cabac=1 / ref=11 / deblock=1:-1:-1 / analyse=0x3:0x133 / me=tesa / subme=10 / psy=1 / psy_rd=1.00:0.15 / mixed_ref=1 / me_range=24 / chroma_me=1 / trellis=2 / 8x8dct=1 / cqm=0 / deadzone=21,11 / fast_pskip=1 / chroma_qp_offset=-3 / threads=12 / lookahead_threads=1 / sliced_threads=0 / nr=0 / decimate=1 / interlaced=0 / bluray_compat=0 / constrained_intra=0 / bframes=6 / b_pyramid=2 / b_adapt=2 / b_bias=0 / direct=3 / weightb=1 / open_gop=0 / weightp=2 / keyint=250 / keyint_min=23 / scenecut=40 / intra_refresh=0 / rc_lookahead=60 / rc=crf / mbtree=1 / crf=20.0 / qcomp=0.60 / qpmin=0 / qpmax=81 / qpstep=4 / ip_ratio=1.40 / aq=1:1.00
Язык : English
Default : Да
Forced : Нет
Аудио #1
Идентификатор : 2
Формат : AC-3
Формат/Информация : Audio Coding 3
Расширение режима : CM (complete main)
Параметр Endianness формата : Big
Идентификатор кодека : A_AC3
Продолжительность : 1 ч. 36 м.
Вид битрейта : Постоянный
Битрейт : 192 Кбит/сек
Каналы : 2 канала
Расположение каналов : Front: L R
Частота : 48,0 КГц
Битовая глубина : 16 бит
Метод сжатия : С потерями
Размер потока : 133 Мбайт (7%)
Заголовок : MVO Russian, AC3, 2ch, 48 kHz, 192 kbps, (Многоголосый Варус видео)
Язык : Russian
Default : Да
Forced : Нет
Аудио #2
Идентификатор : 3
Формат : AC-3
Формат/Информация : Audio Coding 3
Расширение режима : CM (complete main)
Параметр Endianness формата : Big
Идентификатор кодека : A_AC3
Продолжительность : 1 ч. 36 м.
Вид битрейта : Постоянный
Битрейт : 160 Кбит/сек
Каналы : 2 канала
Расположение каналов : Front: L R
Частота : 48,0 КГц
Битовая глубина : 16 бит
Метод сжатия : С потерями
Размер потока : 111 Мбайт (6%)
Заголовок : MVO Russian, AC3, 2ch, 48 kHz, 160 kbps, (Многоголосый)
Язык : Russian
Default : Нет
Forced : Нет
Аудио #3
Идентификатор : 4
Формат : AC-3
Формат/Информация : Audio Coding 3
Расширение режима : CM (complete main)
Параметр Endianness формата : Big
Идентификатор кодека : A_AC3
Продолжительность : 1 ч. 36 м.
Вид битрейта : Постоянный
Битрейт : 384 Кбит/сек
Каналы : 6 каналов
Расположение каналов : Front: L C R, Side: L R, LFE
Частота : 48,0 КГц
Битовая глубина : 16 бит
Метод сжатия : С потерями
Размер потока : 265 Мбайт (13%)
Заголовок : AVO Russian, AC3, 6ch, 48 kHz, 384 kbps, (Одноголосый Горчаков)
Язык : Russian
Default : Нет
Forced : Нет
Аудио #4
Идентификатор : 5
Формат : AC-3
Формат/Информация : Audio Coding 3
Расширение режима : CM (complete main)
Параметр Endianness формата : Big
Идентификатор кодека : A_AC3
Продолжительность : 1 ч. 36 м.
Вид битрейта : Постоянный
Битрейт : 448 Кбит/сек
Каналы : 6 каналов
Расположение каналов : Front: L C R, Side: L R, LFE
Частота : 48,0 КГц
Битовая глубина : 16 бит
Метод сжатия : С потерями
Размер потока : 310 Мбайт (16%)
Заголовок : English, AC3, 6ch, 48 kHz, 448 kbps, (Оригинал)
Язык : English
Default : Нет
Forced : Нет
Текст
Идентификатор : 6
Формат : UTF-8
Идентификатор кодека : S_TEXT/UTF8
Идентификатор кодека/Информация : UTF-8 Plain Text
Язык : English
Default : Нет
Forced : Нет
Меню
00:00:00.000 : ru:1 глава
00:10:00.000 : ru:2 глава
00:20:00.000 : ru:3 глава
00:30:00.000 : ru:4 глава
00:40:00.000 : ru:5 глава
00:50:00.000 : ru:6 глава
01:00:00.000 : ru:7 глава
01:10:00.000 : ru:8 глава
01:20:00.000 : ru:9 глава
01:30:00.000 : ru:10 глава
Скриншоты:
         
         

Грязный Гарри - Внезапный удар/ Dirty Harry - Sudden Impact (1983)

Грязный Гарри - Внезапный удар/ Dirty Harry - Sudden Impact (1983) BDRip [H.264/720p-LQ] [Hi10P] - Год выпуска: 1983
Страна: США
Жанр: Боевик, Триллер, Криминал
Продолжительность: 01:57:09
Перевод: Профессиональный (Дублированный), Профессиональный (многоголосый, закадровый), Авторский (одноголосый закадровый)
Cубтитры: Английские
Режиссер: Клинт Иствуд
В ролях: Клинт Иствуд, Сондра Лок, Пэт Хингл, Брэдфорд Диллман, Пол Дрейк, Одри Дж. Нинан, Джек Тибо, Майкл Карри, Альберт Попвелл, Марк Кейлун
Описание: Гарри покидает Сан-Франциско и ведет расследование на побережье в Сан-Пауло. Там он встречает Сандру Лок, которая сама осуществляет справедливую месть, - несколько лет назад подвыпившие юнцы жестоко изнасиловали ее вместе с младшей сестрой. Теперь она выслеживает этих уже остепенившихся подонков. Местный шеф полиции пытается запретить Гарри действовать в обычной его манере, но недаром его называют Грязным Гарри...

Качество: BDRip
Формат: MKV
Видео: MPEG-4 AVC/H.264, 1280x528(2,40:1), 23.976fps, 1587 Кbps, 0.098bit/pixel
Аудио 1: DUB Russian, AC3, 2ch, 48 kHz, 192 kbps, (Дублированный)
Аудио 2: MVO Russian, AC3, 2ch, 48 kHz, 192 kbps, (Многоголосый Нота)
Аудио 3: AVO Russian, AC3, 6ch, 48 kHz, 384 kbps, (Одноголосый)
Аудио 4: English, AC3, 6ch, 48 kHz, 448 kbps, (Оригинал)

MediaInfo

Общее
Формат : Matroska
Версия формата : Version 4 / Version 2
Размер файла : 2,34 Гбайт
Продолжительность : 1 ч. 57 м.
Общий поток : 2860 Кбит/сек
Название фильма : Грязный Гарри 4: Внезапный удар / Dirty Harry 4: Sudden Impact (1983) BDRip-AVC (Sinteros)
Программа кодирования : mkvmerge v6.5.0 ('Isn't she lovely') built on Oct 20 2013 12:50:05
Библиотека кодирования : libebml v1.3.0 + libmatroska v1.4.1
Attachment : Yes
Видео
Идентификатор : 1
Формат : AVC
Формат/Информация : Advanced Video Codec
Профиль формата : High [url=mailto:[email protected]][email protected][/url]
Параметр CABAC формата : Да
Параметр ReFrames формата : 11 кадров
Идентификатор кодека : V_MPEG4/ISO/AVC
Продолжительность : 1 ч. 57 м.
Битрейт : 1587 Кбит/сек
Ширина : 1280 пикселей
Высота : 528 пикселей
Соотношение сторон : 2,40:1
Режим частоты кадров : Постоянный
Частота кадров : 23,976 кадра/сек
Цветовое пространство : YUV
Субдискретизация насыщенности : 4:2:0
Битовая глубина : 10 бит
Тип развёртки : Прогрессивная
Бит/(Пиксели*Кадры) : 0.098
Размер потока : 1,30 Гбайт (55%)
Заголовок : MPEG-4 AVC/H.264, 1280x528(2,40:1), 23.976fps, 1587 Кbps, 0.098bit/pixel
Библиотека кодирования : x264 core 133 r2334 a3ac64b
Настройки программы : cabac=1 / ref=11 / deblock=1:-1:-1 / analyse=0x3:0x133 / me=tesa / subme=10 / psy=1 / psy_rd=1.00:0.15 / mixed_ref=1 / me_range=24 / chroma_me=1 / trellis=2 / 8x8dct=1 / cqm=0 / deadzone=21,11 / fast_pskip=1 / chroma_qp_offset=-3 / threads=12 / lookahead_threads=1 / sliced_threads=0 / nr=0 / decimate=1 / interlaced=0 / bluray_compat=0 / constrained_intra=0 / bframes=6 / b_pyramid=2 / b_adapt=2 / b_bias=0 / direct=3 / weightb=1 / open_gop=0 / weightp=2 / keyint=250 / keyint_min=23 / scenecut=40 / intra_refresh=0 / rc_lookahead=60 / rc=crf / mbtree=1 / crf=19.0 / qcomp=0.60 / qpmin=0 / qpmax=81 / qpstep=4 / ip_ratio=1.40 / aq=1:1.00
Язык : English
Default : Да
Forced : Нет
Аудио #1
Идентификатор : 2
Формат : AC-3
Формат/Информация : Audio Coding 3
Расширение режима : CM (complete main)
Параметр Endianness формата : Big
Идентификатор кодека : A_AC3
Продолжительность : 1 ч. 57 м.
Вид битрейта : Постоянный
Битрейт : 192 Кбит/сек
Каналы : 2 канала
Расположение каналов : Front: L R
Частота : 48,0 КГц
Битовая глубина : 16 бит
Метод сжатия : С потерями
Размер потока : 161 Мбайт (7%)
Заголовок : DUB Russian, AC3, 2ch, 48 kHz, 192 kbps, (Дублированный)
Язык : Russian
Default : Да
Forced : Нет
Аудио #2
Идентификатор : 3
Формат : AC-3
Формат/Информация : Audio Coding 3
Расширение режима : CM (complete main)
Параметр Endianness формата : Big
Идентификатор кодека : A_AC3
Продолжительность : 1 ч. 57 м.
Вид битрейта : Постоянный
Битрейт : 192 Кбит/сек
Каналы : 2 канала
Расположение каналов : Front: L R
Частота : 48,0 КГц
Битовая глубина : 16 бит
Метод сжатия : С потерями
Размер потока : 161 Мбайт (7%)
Заголовок : MVO Russian, AC3, 2ch, 48 kHz, 192 kbps, (Многоголосый Нота)
Язык : Russian
Default : Нет
Forced : Нет
Аудио #3
Идентификатор : 4
Формат : AC-3
Формат/Информация : Audio Coding 3
Расширение режима : CM (complete main)
Параметр Endianness формата : Big
Идентификатор кодека : A_AC3
Продолжительность : 1 ч. 57 м.
Вид битрейта : Постоянный
Битрейт : 384 Кбит/сек
Каналы : 6 каналов
Расположение каналов : Front: L C R, Side: L R, LFE
Частота : 48,0 КГц
Битовая глубина : 16 бит
Метод сжатия : С потерями
Размер потока : 322 Мбайт (13%)
Заголовок : AVO Russian, AC3, 6ch, 48 kHz, 384 kbps, (Одноголосый)
Язык : Russian
Default : Нет
Forced : Нет
Аудио #4
Идентификатор : 5
Формат : AC-3
Формат/Информация : Audio Coding 3
Расширение режима : CM (complete main)
Параметр Endianness формата : Big
Идентификатор кодека : A_AC3
Продолжительность : 1 ч. 57 м.
Вид битрейта : Постоянный
Битрейт : 448 Кбит/сек
Каналы : 6 каналов
Расположение каналов : Front: L C R, Side: L R, LFE
Частота : 48,0 КГц
Битовая глубина : 16 бит
Метод сжатия : С потерями
Размер потока : 375 Мбайт (16%)
Заголовок : English, AC3, 6ch, 48 kHz, 448 kbps, (Оригинал)
Язык : English
Default : Нет
Forced : Нет
Текст
Идентификатор : 6
Формат : UTF-8
Идентификатор кодека : S_TEXT/UTF8
Идентификатор кодека/Информация : UTF-8 Plain Text
Язык : English
Default : Нет
Forced : Нет
Меню
00:00:00.000 : ru:1 глава
00:10:00.000 : ru:2 глава
00:20:00.000 : ru:3 глава
00:30:00.000 : ru:4 глава
00:40:00.000 : ru:5 глава
00:50:00.000 : ru:6 глава
01:00:00.000 : ru:7 глава
01:10:00.000 : ru:8 глава
01:20:00.000 : ru:9 глава
01:30:00.000 : ru:10 глава
01:40:00.000 : ru:11 глава
01:50:00.000 : ru:12 глава
Скриншоты:
         
         

Грязный Гарри - Игра в смерть/ Dirty Harry - The Dead Pool (1988)

Грязный Гарри - Игра в смерть/ Dirty Harry - The Dead Pool (1988) BDRip [H.264/720p-LQ] [Hi10P] - Год выпуска: 1988
Страна: США
Жанр: Боевик, Триллер, Криминал
Продолжительность: 01:31:13
Перевод: Профессиональный (Дублированный), Профессиональный (многоголосый, закадровый), Авторский (одноголосый закадровый)
Субтитры: Английские
Режиссер: Бадди Ван Хорн
В ролях: Клинт Иствуд, Лиам Нисон, Патришия Кларксон, Ивэн С. Ким, Дэвид Хант, Майкл Карри, Майкл Гудвин, Дарвин Джиллетт, Энтони Чарнота, Кристофер П. Бил
Описание: Пятый фильм о "Грязном Гарри" рассказывает о том, как инспектор Кэллахэн (Иствуд) расследует жутковатое дело, связанное со списком жертв. Некоторые из них уже убиты, а другим угрожает смерть. Одновременно он влюбляется в очаровательную тележурналистку. Великолепная игра Иствуда поднимает боевик на уровень гораздо выше среднего, и смотрится он с неослабным напряжением.

Качество: BDRip
Формат: MKV
Видео: MPEG-4 AVC/H.264, 1280x720(16:9), 23.976fps, 2163 Кbps, 0.098bit/pixel
Аудио 1: DUB Russian, AC3, 2ch, 48 kHz, 192 kbps, (Дублированный)
Аудио 2: MVO Russian, AC3, 2ch, 48 kHz, 192 kbps, (Многоголосый)
Аудио 3: AVO Russian, AC3, 6ch, 48 kHz, 384 kbps, (Одноголосый Гаврилов)
Аудио 4: English, AC3, 6ch, 48 kHz, 448 kbps, (Оригинал)

MediaInfo

Общее
Формат : Matroska
Версия формата : Version 4 / Version 2
Размер файла : 2,20 Гбайт
Продолжительность : 1 ч. 31 м.
Общий поток : 3448 Кбит/сек
Название фильма : Грязный Гарри 5: Список смертников / Игра в смерть / Dirty Harry 5: The Dead Pool (1988) BDRip-AVC (Sinteros)
Программа кодирования : mkvmerge v6.5.0 ('Isn't she lovely') built on Oct 20 2013 12:50:05
Библиотека кодирования : libebml v1.3.0 + libmatroska v1.4.1
Attachment : Yes
Видео
Идентификатор : 1
Формат : AVC
Формат/Информация : Advanced Video Codec
Профиль формата : High [url=mailto:[email protected]][email protected][/url]
Параметр CABAC формата : Да
Параметр ReFrames формата : 11 кадров
Идентификатор кодека : V_MPEG4/ISO/AVC
Продолжительность : 1 ч. 31 м.
Битрейт : 2163 Кбит/сек
Ширина : 1280 пикселей
Высота : 720 пикселей
Соотношение сторон : 16:9
Режим частоты кадров : Постоянный
Частота кадров : 23,976 кадра/сек
Цветовое пространство : YUV
Субдискретизация насыщенности : 4:2:0
Битовая глубина : 10 бит
Тип развёртки : Прогрессивная
Бит/(Пиксели*Кадры) : 0.098
Размер потока : 1,38 Гбайт (63%)
Заголовок : MPEG-4 AVC/H.264, 1280x720(16:9), 23.976fps, 2163 Кbps, 0.098bit/pixel
Библиотека кодирования : x264 core 133 r2334 a3ac64b
Настройки программы : cabac=1 / ref=11 / deblock=1:-1:-1 / analyse=0x3:0x133 / me=tesa / subme=10 / psy=1 / psy_rd=1.00:0.15 / mixed_ref=1 / me_range=24 / chroma_me=1 / trellis=2 / 8x8dct=1 / cqm=0 / deadzone=21,11 / fast_pskip=1 / chroma_qp_offset=-3 / threads=12 / lookahead_threads=1 / sliced_threads=0 / nr=0 / decimate=1 / interlaced=0 / bluray_compat=0 / constrained_intra=0 / bframes=6 / b_pyramid=2 / b_adapt=2 / b_bias=0 / direct=3 / weightb=1 / open_gop=0 / weightp=2 / keyint=250 / keyint_min=23 / scenecut=40 / intra_refresh=0 / rc_lookahead=60 / rc=crf / mbtree=1 / crf=20.0 / qcomp=0.60 / qpmin=0 / qpmax=81 / qpstep=4 / ip_ratio=1.40 / aq=1:1.00
Язык : English
Default : Да
Forced : Нет
Аудио #1
Идентификатор : 2
Формат : AC-3
Формат/Информация : Audio Coding 3
Расширение режима : CM (complete main)
Параметр Endianness формата : Big
Идентификатор кодека : A_AC3
Продолжительность : 1 ч. 31 м.
Вид битрейта : Постоянный
Битрейт : 192 Кбит/сек
Каналы : 2 канала
Расположение каналов : Front: L R
Частота : 48,0 КГц
Битовая глубина : 16 бит
Метод сжатия : С потерями
Размер потока : 125 Мбайт (6%)
Заголовок : DUB Russian, AC3, 2ch, 48 kHz, 192 kbps, (Дублированный)
Язык : Russian
Default : Да
Forced : Нет
Аудио #2
Идентификатор : 3
Формат : AC-3
Формат/Информация : Audio Coding 3
Профиль формата : Dolby Digital
Расширение режима : CM (complete main)
Параметр Endianness формата : Big
Идентификатор кодека : A_AC3
Продолжительность : 1 ч. 31 м.
Вид битрейта : Постоянный
Битрейт : 192 Кбит/сек
Каналы : 2 канала
Расположение каналов : Front: L R
Частота : 48,0 КГц
Битовая глубина : 16 бит
Метод сжатия : С потерями
Размер потока : 125 Мбайт (6%)
Заголовок : MVO Russian, AC3, 2ch, 48 kHz, 192 kbps, (Многоголосый)
Язык : Russian
Default : Нет
Forced : Нет
Аудио #3
Идентификатор : 4
Формат : AC-3
Формат/Информация : Audio Coding 3
Расширение режима : CM (complete main)
Параметр Endianness формата : Big
Идентификатор кодека : A_AC3
Продолжительность : 1 ч. 31 м.
Вид битрейта : Постоянный
Битрейт : 384 Кбит/сек
Каналы : 6 каналов
Расположение каналов : Front: L C R, Side: L R, LFE
Частота : 48,0 КГц
Битовая глубина : 16 бит
Метод сжатия : С потерями
Размер потока : 251 Мбайт (11%)
Заголовок : AVO Russian, AC3, 6ch, 48 kHz, 384 kbps, (Одноголосый Гаврилов)
Язык : Russian
Default : Нет
Forced : Нет
Аудио #4
Идентификатор : 5
Формат : AC-3
Формат/Информация : Audio Coding 3
Расширение режима : CM (complete main)
Параметр Endianness формата : Big
Идентификатор кодека : A_AC3
Продолжительность : 1 ч. 31 м.
Вид битрейта : Постоянный
Битрейт : 448 Кбит/сек
Каналы : 6 каналов
Расположение каналов : Front: L C R, Side: L R, LFE
Частота : 48,0 КГц
Битовая глубина : 16 бит
Метод сжатия : С потерями
Размер потока : 292 Мбайт (13%)
Заголовок : English, AC3, 6ch, 48 kHz, 448 kbps, (Оригинал)
Язык : English
Default : Нет
Forced : Нет
Текст
Идентификатор : 6
Формат : UTF-8
Идентификатор кодека : S_TEXT/UTF8
Идентификатор кодека/Информация : UTF-8 Plain Text
Язык : English
Default : Нет
Forced : Нет
Меню
00:00:00.000 : ru:1 глава
00:10:00.000 : ru:2 глава
00:20:00.000 : ru:3 глава
00:30:00.000 : ru:4 глава
00:40:00.000 : ru:5 глава
00:50:00.000 : ru:6 глава
01:00:00.000 : ru:7 глава
01:10:00.000 : ru:8 глава
01:20:00.000 : ru:9 глава
Скриншоты:
         
         
Примечание: Рип в High 10 Profile, в настоящее время не поддерживается большинством аппаратных проигрывателей, поэтому предназначен исключительно для воспроизведения на ПК. Для корректного воспроизведения может потребоваться обновление ПО.
Вне форума [Профиль] [ЛС]
Похожие темы
Форум Тема Автор Торрент Отв. Посл. сообщение
./templates/default/images/folder_dl.gif Философия, Религия, Эзотерика Майкл Блендинг | Coca-Cola. Грязная правда (2013) [PDF, EPUB] }{@R0N
1 | 0

0 | 2257

2

2017-02-20 15:50
}{@R0N Последнее
Показать сообщения:    
Ответить на тему

Текущее время: Сегодня 15:49

Часовой пояс: GMT + 3



Вы не можете начинать темы
Вы не можете отвечать на сообщения
Вы не можете редактировать свои сообщения
Вы не можете удалять свои сообщения
Вы не можете голосовать в опросах
Вы не можете прикреплять файлы к сообщениям
Вы не можете скачивать файлы