Today is a free download without charge Download

Машины сказки (1-24) (Ринат Газизов, Денис Червяцов)[2011-2013.,Рисованная анимация, Компьютерная анимация, Детский] BDRip,DVDRip [H.264]

Reply to topic
 
Author
Message

sashau ®

Gender:

Longevity: 8 years 10 months

Posts: 3497

Торрент-статистика

Post 09-Nov-2013 11:43

[Quote]

Машины сказки - Год выпуска: 2011-2013
Жанр: Рисованная анимация, Компьютерная анимация, Детский
Вид субтитров: Отсутствуют
Режиссер: Ринат Газизов, Денис Червяцов
Персонажи: Маша и др.
Описание фильма:
Маша рассказывает двум своим игрушкам, Кукле и Мишке, сказки. В этих сказках имеется юмор и своеобразие...
Продолжительность: серия ~ 00:05:30
Качество видео: BDRip,DVDRip
Видеокодек: MPEG-4 AVC/H.264
Битрейт видео: ~ 2000 kbps
Размер кадра: 1024х576, 720x576
Аудиокодек: AC3 2.0
Битрейт аудио: 192.00 kbps
Исходник серий 1-12 Blu-ray 1080p
Исходник серий 13-24 DVD5 R5

Список серий

01. Волк и семеро козлят
02. Гуси-Лебеди
03. Лиса и Заяц
04. Красная шапочка
05. Морозко
06. Волк и лиса
07. Вершки и корешки
08. Царевна-лягушка
09. Снегурочка
10. Мальчик с пальчик
11. Крошечка-хаврошечка
12. Бычок смоляной бочок
13. Три поросенка
14. Храбрый портняжка
15. Али-Баба
16. Золушка
17. Калиф-аист
18. Джек и бобовое зернышко
19. Свинопас
20. Синяя борода
21. По щучьему велению
22. Лисичка со скалочкой
23. Каша из топора
24. Пойди туда - не знаю куда, принеси то - не знаю что

Mediainfo Серии 1-12

Общее
Уникальный идентификатор : 202260873647272548510699357954213915359 (0x982A06FE04D57081A991B6D84F7BAADF)
Полное имя : E:\Раздача\Mashiny.skazki.2011-2013.BDRip-AVC,DVDRip-AVC\03. Лиса и Заяц.mkv
Формат : Matroska
Версия формата : Version 4 / Version 2
Размер файла : 91,4 Мбайт
Продолжительность : 5 м. 49 с.
Общий поток : 2194 Кбит/сек
Название фильма : 03. Лиса и Заяц_[Youtracker]_by_AVP Studio
Дата кодирования : UTC 2013-05-29 19:49:17
Программа кодирования : mkvmerge v6.2.0 ('Promised Land') built on Apr 28 2013 12:22:01
Библиотека кодирования : libebml v1.3.0 + libmatroska v1.4.0
Видео
Идентификатор : 1
Формат : AVC
Формат/Информация : Advanced Video Codec
Профиль формата : [url=mailto:[email protected]][email protected][/url]
Параметр CABAC формата : Да
Параметр ReFrames формата : 11 кадров
Идентификатор кодека : V_MPEG4/ISO/AVC
Продолжительность : 5 м. 49 с.
Битрейт : 2000 Кбит/сек
Ширина : 1024 пикселя
Высота : 576 пикселей
Соотношение сторон : 16:9
Режим частоты кадров : Постоянный
Частота кадров : 24,000 кадра/сек
Цветовое пространство : YUV
Субдискретизация насыщенности : 4:2:0
Битовая глубина : 8 бит
Тип развёртки : Прогрессивная
Бит/(Пиксели*Кадры) : 0.141
Размер потока : 81,5 Мбайт (89%)
Заголовок : Источник Blu-ray 1080p
Библиотека кодирования : x264 core 130 r2273 b3065e6
Настройки программы : cabac=1 / ref=11 / deblock=1:-3:-2 / analyse=0x3:0x113 / me=umh / subme=9 / psy=1 / psy_rd=1.00:0.10 / mixed_ref=1 / me_range=32 / chroma_me=1 / trellis=1 / 8x8dct=1 / cqm=0 / deadzone=21,11 / fast_pskip=0 / chroma_qp_offset=-3 / threads=3 / lookahead_threads=1 / sliced_threads=0 / nr=0 / decimate=1 / interlaced=0 / bluray_compat=0 / constrained_intra=0 / bframes=10 / b_pyramid=2 / b_adapt=1 / b_bias=0 / direct=3 / weightb=1 / open_gop=0 / weightp=2 / keyint=240 / keyint_min=23 / scenecut=40 / intra_refresh=0 / rc_lookahead=60 / rc=2pass / mbtree=1 / bitrate=2000 / ratetol=1.0 / qcomp=0.60 / qpmin=0 / qpmax=69 / qpstep=4 / cplxblur=20.0 / qblur=0.5 / ip_ratio=1.40 / aq=1:1.00
Язык : Russian
Default : Да
Forced : Нет
Аудио
Идентификатор : 2
Формат : AC-3
Формат/Информация : Audio Coding 3
Расширение режима : CM (complete main)
Параметр Endianness формата : Big
Идентификатор кодека : A_AC3
Продолжительность : 5 м. 49 с.
Вид битрейта : Постоянный
Битрейт : 192 Кбит/сек
Каналы : 2 канала
Расположение каналов : Front: L R
Частота : 48,0 КГц
Битовая глубина : 16 бит
Метод сжатия : С потерями
Размер потока : 8,00 Мбайт (9%)
Заголовок : Источник Blu-ray 1080p
Язык : Russian
Default : Да
Forced : Нет

Mediainfo Серии 13-24

Общее
Уникальный идентификатор : 195560816422013271878525563405762267382 (0x931FA4AAB1E321D1B9F833F46CBF88F6)
Полное имя : E:\Раздача\Mashiny.skazki.2011-2013.BDRip-AVC,DVDRip-AVC\21. По щучьему велению.mkv
Формат : Matroska
Версия формата : Version 2
Размер файла : 87,9 Мбайт
Продолжительность : 5 м. 35 с.
Общий поток : 2201 Кбит/сек
Дата кодирования : UTC 2013-09-09 07:07:33
Программа кодирования : mkvmerge v6.1.0 ('Old Devil') built on Mar 4 2013 09:10:42
Библиотека кодирования : libebml v1.3.0 + libmatroska v1.4.0
Видео
Идентификатор : 1
Формат : AVC
Формат/Информация : Advanced Video Codec
Профиль формата : [url=mailto:[email protected]][email protected][/url]
Параметр CABAC формата : Да
Параметр ReFrames формата : 11 кадров
Идентификатор кодека : V_MPEG4/ISO/AVC
Продолжительность : 5 м. 35 с.
Битрейт : 2006 Кбит/сек
Ширина : 720 пикселей
Высота : 576 пикселей
Соотношение сторон : 16:9
Режим частоты кадров : Постоянный
Частота кадров : 25,000 кадров/сек
Стандарт вещания : PAL
Цветовое пространство : YUV
Субдискретизация насыщенности : 4:2:0
Битовая глубина : 8 бит
Тип развёртки : Прогрессивная
Бит/(Пиксели*Кадры) : 0.193
Размер потока : 78,5 Мбайт (89%)
Библиотека кодирования : x264 core 130 r2273 b3065e6
Настройки программы : cabac=1 / ref=11 / deblock=1:-2:-1 / analyse=0x3:0x113 / me=umh / subme=9 / psy=1 / psy_rd=1.00:0.15 / mixed_ref=1 / me_range=32 / chroma_me=1 / trellis=1 / 8x8dct=1 / cqm=0 / deadzone=21,11 / fast_pskip=0 / chroma_qp_offset=-3 / threads=3 / lookahead_threads=1 / sliced_threads=0 / nr=0 / decimate=0 / interlaced=0 / bluray_compat=0 / constrained_intra=0 / bframes=8 / b_pyramid=2 / b_adapt=2 / b_bias=0 / direct=3 / weightb=1 / open_gop=0 / weightp=2 / keyint=250 / keyint_min=25 / scenecut=40 / intra_refresh=0 / rc_lookahead=60 / rc=2pass / mbtree=1 / bitrate=2006 / ratetol=1.0 / qcomp=0.60 / qpmin=0 / qpmax=69 / qpstep=4 / cplxblur=20.0 / qblur=0.5 / ip_ratio=1.40 / aq=1:1.00
Default : Да
Forced : Нет
Аудио
Идентификатор : 2
Формат : AC-3
Формат/Информация : Audio Coding 3
Расширение режима : CM (complete main)
Параметр Endianness формата : Big
Идентификатор кодека : A_AC3
Продолжительность : 5 м. 35 с.
Вид битрейта : Постоянный
Битрейт : 192 Кбит/сек
Каналы : 2 канала
Расположение каналов : Front: L R
Частота : 48,0 КГц
Битовая глубина : 16 бит
Метод сжатия : С потерями
Размер потока : 7,67 Мбайт (9%)
Default : Да
Forced : Нет
Скриншоты:
Серии 1-12
       
Серии 13-24
       
Other forum [Profile] [PM]
Display posts from previous:    
Reply to topic

The time now is: Today 19:04

All times are GMT + 3 Hours



You cannot post new topics in this forum
You cannot reply to topics in this forum
You cannot edit your posts in this forum
You cannot delete your posts in this forum
You cannot vote in polls in this forum
You cannot attach files in this forum
You cannot download files in this forum