Today is a free download without charge Download

Дорожкая сказка (Гарри Бардин) [1981, мультфильм, короткометражка, DVDRip]

Reply to topic
 
Author
Message

Omen ®

Longevity: 7 years 11 months

Posts: 181087

Торрент-статистика

Post 09-Nov-2013 05:12

[Quote]

Дорожкая сказка
Страна: СССР
Жанр: мультфильм, короткометражка
Продолжительность: 00:09:52
Год выпуска: 1981
Русские субтитры: нет
Режиссёр: Гарри Бардин
Описание: Современная сказка о маленьких забавных автомобильчиках.
Качество: DVDRip
Формат: AVI
Видео: 640x480 (1.33:1), 25 fps, DivX Codec 5.2.1 build 1328 ~1621 kbps avg, 0.21 bit/pixel
Аудио: 48 kHz, AC3 Dolby Digital, 2/0 (L,R) ch, ~192 kbps
Субтитры: отсутствуют

Подробные технические данные

GeneralComplete name : Дорожная сказка.aviFormat : AVIFormat/Info : Audio Video InterleaveFile size : 129 MiBDuration : 9mn 52sOverall bit rate : 1 823 KbpsMovie name : Дорожная сказкаDirector : Гарри БардинWriting application : VirtualDubMod 1.5.10.2 (build 2540/release)Original source form/Name : CartoonComment : DVDrip by tiss
VideoID : 0Format : MPEG-4 VisualFormat settings, BVOP : 1Format settings, QPel : NoFormat settings, GMC : No warppointsFormat settings, Matrix : Default (H.263)Muxing mode : Packed bitstreamCodec ID : DX50Codec ID/Hint : DivX 5Duration : 9mn 52sBit rate : 1 622 KbpsWidth : 640 pixelsHeight : 480 pixelsDisplay aspect ratio : 4:3Frame rate : 25.000 fpsColor space : YUVChroma subsampling : 4:2:0Bit depth : 8 bitsScan type : ProgressiveCompression mode : LossyBits/(Pixel*Frame) : 0.211Stream size : 114 MiB (89%)Writing library : DivX 5.2.1 (WaffleDay) (UTC 2004-09-08)
AudioID : 1Format : AC-3Format/Info : Audio Coding 3Mode extension : CM (complete main)Format settings, Endianness : BigCodec ID : 2000Duration : 9mn 51sBit rate mode : ConstantBit rate : 192 KbpsChannel(s) : 2 channelsChannel positions : Front: L RSampling rate : 48.0 KHzBit depth : 16 bitsCompression mode : LossyStream size : 13.5 MiB (11%)Alignment : Split accross interleavesInterleave, duration : 40 ms (1.00 video frame)Interleave, preload duration : 500 ms

Скриншоты

Other forum [Profile] [PM]
Display posts from previous:    
Reply to topic

The time now is: Today 06:34

All times are GMT + 3 Hours



You cannot post new topics in this forum
You cannot reply to topics in this forum
You cannot edit your posts in this forum
You cannot delete your posts in this forum
You cannot vote in polls in this forum
You cannot attach files in this forum
You cannot download files in this forum