Today is a free download without charge Download

Из 13 в 30 / 13 Going On 30 (Гари Виник) [2004 г., мелодрама, комедия, BDRip720p]

Reply to topic
 
Author
Message

Delia ®

Gender:

Longevity: 10 years

Posts: 1821

Торрент-статистика

Post 29-Oct-2011 13:08

[Quote]

Из 13 в 30 13 Going On 30 Год выпуска: 2004
Страна: США
Жанр: мелодрама, комедия
Продолжительность: 01:37:47
Перевод: Дублированный
Режиссер: Гари Виник
Продюссер: Сьюзэн Арнольд, Джина Мэтьюз, Донна Рот
Сценарий: Джош Голдсмит, Кэти Юспа
Бюджет: $37 000 000
Премьера в мире: 14 апреля 2004,
В ролях: Дженнифер Гарнер, Марк Руффало, Джуди Грир, Энди Серкис, Кэти Бейкер, Фил Ривз, Сэмюэл Болл, Марсия ДеБонис, Криста Б. Аллен, Шон Маркетт
Описание: Дети так отчаянно хотят быть взрослыми, не догадываясь, что пройдут годы, и они так же страстно захотят обратного. Но так как в нашем мире все еще случаются чудеса, некоторым не приходится ждать долго, чтобы убедиться в этом. Сегодня Дженни всего 13 и она очень хочет стать большой. Видимо, ее желание попадает по нужному адресу, поскольку на утро она просыпается… 30-летней красавицей!
Словно кто-то перемотал пленку с 17 годами жизни. Самое время кричать «ура»? Только вот какая штука: для всех эти годы прошли обычным порядком, но во взрослой Дженни, оказывается душа девочки-подростка, что постоянно приводит к забавным недоразумениям и ставит в тупик окружающих…
Качество: BDRip720p
Формат: MKV
Видео кодек: H.264
Аудио кодек: AC3
Видео: English, 4991 Кбит/сек, 1280*688 (1,860), в 23,976 кадр/сек, AVC ([email protected])
Аудио:Russian, 640 Кбит/сек, 48,0 КГц, 16 бит, 6 канала(ов), AC-3 | дубляж
Аудио:Russian, 384 Кбит/сек, 48,0 КГц, 16 бит, 6 канала(ов), AC-3 | MVO
Аудио:English, 384 Кбит/сек, 48,0 КГц, 16 бит, 6 канала(ов), AC-3 | оригинал
Субтитры:Russian, English (srt)

MI:

Код:
Общее
Уникальный идентификатор         : 175976369516773737907789555040400658812 (0x8463D0E278DED8E5A7D4AA49409F517C)
Полное имя                       : E:\торрент\13 Going On 30(2004)BDrip720p.mkv
Формат                           : Matroska
Размер файла                     : 4,37 Гбайт
Продолжительность                : 1 ч. 37 м.
Общий поток                      : 6400 Кбит/сек
Дата кодирования                 : UTC 2011-10-29 06:15:53
Программа кодирования            : mkvmerge v5.0.1 ('Es ist Sommer') built on Oct  9 2011 11:55:43
Библиотека кодирования           : libebml v1.2.2 + libmatroska v1.3.0
Видео
Идентификатор                    : 1
Формат                           : AVC
Формат/Информация                : Advanced Video Codec
Профиль формата                  : [email protected]
Параметр CABAC формата           : Да
Параметр ReFrames формата        : 9 кадры
Идентификатор кодека             : V_MPEG4/ISO/AVC
Продолжительность                : 1 ч. 37 м.
Битрейт                          : 4991 Кбит/сек
Ширина                           : 1280 пикс.
Высота                           : 688 пикс.
Соотношение сторон               : 1,860
Частота кадров                   : 23,976 кадр/сек
Цветовое пространство            : YUV
Подвыборка цветности             : 4:2:0
Битовая глубина                  : 8 бит
Тип развёртки                    : Прогрессивная
Бит/(Пиксели*Кадры)              : 0.236
Размер потока                    : 3,32 Гбайт (76%)
Библиотека кодирования           : x264 core 119 r2106 07efeb4
Настройки программы              : cabac=1 / ref=9 / deblock=1:-2:-2 / analyse=0x3:0x113 / me=umh / subme=9 / psy=1 / psy_rd=0.95:0.15 / mixed_ref=1 / me_range=32 / chroma_me=1 / trellis=2 / 8x8dct=1 / cqm=0 / deadzone=21,11 / fast_pskip=0 / chroma_qp_offset=-3 / threads=6 / sliced_threads=0 / nr=0 / decimate=1 / interlaced=0 / bluray_compat=0 / constrained_intra=0 / bframes=8 / b_pyramid=2 / b_adapt=2 / b_bias=0 / direct=1 / weightb=1 / open_gop=0 / weightp=2 / keyint=250 / keyint_min=23 / scenecut=40 / intra_refresh=0 / rc_lookahead=60 / rc=2pass / mbtree=1 / bitrate=4991 / ratetol=1.0 / qcomp=0.65 / qpmin=10 / qpmax=51 / qpstep=4 / cplxblur=20.0 / qblur=0.5 / ip_ratio=1.40 / aq=2:0.90
Язык                             : English
Аудио #1
Идентификатор                    : 2
Формат                           : AC-3
Формат/Информация                : Audio Coding 3
Расширение режима                : CM (complete main)
Идентификатор кодека             : A_AC3
Продолжительность                : 1 ч. 37 м.
Вид битрейта                     : Постоянный
Битрейт                          : 640 Кбит/сек
Канал(ы)                         : 6 канала(ов)
Расположение каналов             : Front: L C R, Side: L R, LFE
Частота                          : 48,0 КГц
Битовая глубина                  : 16 бит
Метод сжатия                     : С потерями
Размер потока                    : 448 Мбайт (10%)
Язык                             : Russian
Аудио #2
Идентификатор                    : 3
Формат                           : AC-3
Формат/Информация                : Audio Coding 3
Расширение режима                : CM (complete main)
Идентификатор кодека             : A_AC3
Продолжительность                : 1 ч. 37 м.
Вид битрейта                     : Постоянный
Битрейт                          : 384 Кбит/сек
Канал(ы)                         : 6 канала(ов)
Расположение каналов             : Front: L C R, Side: L R, LFE
Частота                          : 48,0 КГц
Битовая глубина                  : 16 бит
Метод сжатия                     : С потерями
Размер потока                    : 269 Мбайт (6%)
Язык                             : Russian
Аудио #3
Идентификатор                    : 4
Формат                           : AC-3
Формат/Информация                : Audio Coding 3
Расширение режима                : CM (complete main)
Идентификатор кодека             : A_AC3
Продолжительность                : 1 ч. 37 м.
Вид битрейта                     : Постоянный
Битрейт                          : 384 Кбит/сек
Канал(ы)                         : 6 канала(ов)
Расположение каналов             : Front: L C R, Side: L R, LFE
Частота                          : 48,0 КГц
Битовая глубина                  : 16 бит
Метод сжатия                     : С потерями
Размер потока                    : 269 Мбайт (6%)
Язык                             : English
Текст #1
Идентификатор                    : 5
Формат                           : UTF-8
Идентификатор кодека             : S_TEXT/UTF8
Идентификатор кодека/Информация  : UTF-8 Plain Text
Язык                             : Russian
Текст #2
Идентификатор                    : 6
Формат                           : UTF-8
Идентификатор кодека             : S_TEXT/UTF8
Идентификатор кодека/Информация  : UTF-8 Plain Text
Язык                             : English
Меню
00:00:00.000                     : en:Chapter 01
00:05:58.066                     : en:Chapter 02
00:12:31.041                     : en:Chapter 03
00:18:50.754                     : en:Chapter 04
00:25:36.076                     : en:Chapter 05
00:29:07.454                     : en:Chapter 06
00:33:55.658                     : en:Chapter 07
00:41:27.860                     : en:Chapter 08
00:46:42.424                     : en:Chapter 09
00:52:09.626                     : en:Chapter 10
00:56:25.340                     : en:Chapter 11
01:03:14.957                     : en:Chapter 12
01:10:36.106                     : en:Chapter 13
01:16:45.684                     : en:Chapter 14
01:24:14.132                     : en:Chapter 15
01:31:13.676                     : en:Chapter 16

Скриншоты

     
     

_________________
Человек – это канат, натянутый между животным и сверхчеловеком, – канат над пропастью.
В человеке ценно то, что он мост, а не цель. Фридрих Ницше
Other forum [Profile] [PM]
Display posts from previous:    
Reply to topic

The time now is: Today 10:20

All times are GMT + 3 Hours



You cannot post new topics in this forum
You cannot reply to topics in this forum
You cannot edit your posts in this forum
You cannot delete your posts in this forum
You cannot vote in polls in this forum
You cannot attach files in this forum
You cannot download files in this forum